<?xml version="1.0" standalone="no"?>
<!DOCTYPE svg PUBLIC "-//W3C//DTD SVG 1.1//EN" "http://www.w3.org/Graphics/SVG/1.1/DTD/svg11.dtd" >
<svg xmlns="http://www.w3.org/2000/svg" xmlns:xlink="http://www.w3.org/1999/xlink" version="1.1">
<metadata>
Created by FontForge 20170731 at Mon Feb 23 18:19:50 2009
 By Aleksey,,,
Copyright (c) 2008 - 2009 Linotype GmbH, www.linotype.com. All rights reserved. This font software may not be reproduced, modified, disclosed or transferred without the express written approval of Linotype GmbH.
</metadata>
<defs>
<font id="DINNextLTPro-Heavy" horiz-adv-x="562" >
  <font-face 
    font-family="DIN Next LT Pro Heavy"
    font-weight="750"
    font-stretch="normal"
    units-per-em="1000"
    panose-1="2 11 9 3 2 2 3 5 2 3"
    ascent="750"
    descent="-250"
    x-height="487"
    cap-height="680"
    bbox="-174.25 -248 1126 931"
    underline-thickness="50"
    underline-position="-200"
    unicode-range="U+0020-FB04"
  />
<missing-glyph horiz-adv-x="530" 
d="M0 10v660q0 10 10 10h510q10 0 10 -10v-660q0 -10 -10 -10h-510q-10 0 -10 10zM79 81q0 -6 6 -6h360q6 0 6 6v518q0 6 -6 6h-360q-6 0 -6 -6v-518zM219 249q-10 0 -10 10v24q0 29 20 54l39 47q28 32 28 51q0 17 -10 27t-26 10q-33 0 -41 -34q-3 -10 -12 -9l-76 10
q-10 2 -8 11q8 52 45.5 82.5t96.5 30.5q61 0 98.5 -34.5t37.5 -85.5q0 -49 -40 -92l-38 -47q-13 -14 -13 -35v-10q0 -10 -10 -10h-81zM208 123v75q0 10 10 10h83q10 0 10 -10v-75q0 -10 -10 -10h-83q-10 0 -10 10z" />
    <glyph glyph-name="IJ" unicode="IJ" horiz-adv-x="820" 
d="M55 10v660q0 10 10 10h156q10 0 10 -10v-660q0 -10 -10 -10h-156q-10 0 -10 10zM304 81q-5 8 1 14l111 88q8 6 14 -2q32 -36 75 -36q86 0 86 100v425q0 10 10 10h156q10 0 10 -10v-411q0 -134 -67 -202.5t-193 -68.5q-65 0 -120.5 26t-82.5 67z" />
    <glyph glyph-name="ij" unicode="ij" horiz-adv-x="548" 
d="M211 550h-148q-10 0 -10 10v110q0 10 10 10h148q10 0 10 -10v-110q0 -10 -10 -10zM211 0h-148q-10 0 -10 10v467q0 10 10 10h148q10 0 10 -10v-467q0 -10 -10 -10zM485 550h-148q-10 0 -10 10v110q0 10 10 10h148q10 0 10 -10v-110q0 -10 -10 -10zM296 -180h-38
q-10 0 -10 10v118q0 10 10 10h15q31 0 42.5 11t11.5 44v464q0 10 10 10h148q10 0 10 -10v-464q0 -101 -50 -147t-149 -46z" />
    <glyph glyph-name="napostrophe" unicode="&#x22;n" horiz-adv-x="558" 
d="M-33 472q-11 0 -11 13v185q0 10 10 10h109q10 0 10 -10v-94q0 -13 -9 -21l-92 -75q-9 -8 -17 -8zM498 0h-148q-10 0 -10 10v278q0 71 -59 71q-28 0 -44 -19t-16 -52v-278q0 -10 -10 -10h-148q-10 0 -10 10v467q0 10 10 10h148q10 0 10 -10v-35h1q39 57 125 57
q80 0 120.5 -49t40.5 -133v-307q0 -10 -10 -10z" />
    <glyph glyph-name="f_f" unicode="ff" horiz-adv-x="702" 
d="M231 0h-147q-10 0 -10 10v351q0 6 -6 6h-28q-10 0 -10 10v100q0 10 10 10h28q6 0 6 6v14q0 92 42.5 132.5t137.5 40.5h66q10 0 10 -10v-108q0 -10 -10 -10h-29q-29 0 -39.5 -9.5t-10.5 -34.5v-15q0 -6 6 -6h71q10 0 10 -10v-100q0 -10 -10 -10h-71q-6 0 -6 -6v-351
q0 -10 -10 -10zM582 0h-147q-10 0 -10 10v351q0 6 -6 6h-28q-10 0 -10 10v100q0 10 10 10h28q6 0 6 6v14q0 92 42.5 132.5t137.5 40.5h66q10 0 10 -10v-108q0 -10 -10 -10h-29q-30 0 -40 -9.5t-10 -34.5v-15q0 -6 6 -6h71q10 0 10 -10v-100q0 -10 -10 -10h-71q-6 0 -6 -6
v-351q0 -10 -10 -10z" />
    <glyph glyph-name="fi" unicode="fi" horiz-adv-x="625" 
d="M231 0h-147q-10 0 -10 10v351q0 6 -6 6h-28q-10 0 -10 10v100q0 10 10 10h28q6 0 6 6v14q0 92 42.5 132.5t137.5 40.5h66q10 0 10 -10v-108q0 -10 -10 -10h-29q-29 0 -39.5 -9.5t-10.5 -34.5v-15q0 -6 6 -6h71q10 0 10 -10v-100q0 -10 -10 -10h-71q-6 0 -6 -6v-351
q0 -10 -10 -10zM562 550h-148q-10 0 -10 10v110q0 10 10 10h148q10 0 10 -10v-110q0 -10 -10 -10zM562 0h-148q-10 0 -10 10v467q0 10 10 10h148q10 0 10 -10v-467q0 -10 -10 -10z" />
    <glyph glyph-name="fl" unicode="fl" horiz-adv-x="666" 
d="M231 0h-147q-10 0 -10 10v351q0 6 -6 6h-28q-10 0 -10 10v100q0 10 10 10h28q6 0 6 6v14q0 92 42.5 132.5t137.5 40.5h66q10 0 10 -10v-108q0 -10 -10 -10h-29q-29 0 -39.5 -9.5t-10.5 -34.5v-15q0 -6 6 -6h71q10 0 10 -10v-100q0 -10 -10 -10h-71q-6 0 -6 -6v-351
q0 -10 -10 -10zM632 -6h-61q-91 0 -130 39.5t-39 131.5v505q0 10 10 10h148q10 0 10 -10v-488q0 -48 41 -48h21q10 0 10 -10v-120q0 -10 -10 -10z" />
    <glyph glyph-name="f_f_i" unicode="ffi" horiz-adv-x="976" 
d="M231 0h-147q-10 0 -10 10v351q0 6 -6 6h-28q-10 0 -10 10v100q0 10 10 10h28q6 0 6 6v14q0 92 42.5 132.5t137.5 40.5h66q10 0 10 -10v-108q0 -10 -10 -10h-29q-29 0 -39.5 -9.5t-10.5 -34.5v-15q0 -6 6 -6h71q10 0 10 -10v-100q0 -10 -10 -10h-71q-6 0 -6 -6v-351
q0 -10 -10 -10zM582 0h-147q-10 0 -10 10v351q0 6 -6 6h-28q-10 0 -10 10v100q0 10 10 10h28q6 0 6 6v14q0 92 42.5 132.5t137.5 40.5h66q10 0 10 -10v-108q0 -10 -10 -10h-29q-30 0 -40 -9.5t-10 -34.5v-15q0 -6 6 -6h71q10 0 10 -10v-100q0 -10 -10 -10h-71q-6 0 -6 -6
v-351q0 -10 -10 -10zM913 550h-148q-10 0 -10 10v110q0 10 10 10h148q10 0 10 -10v-110q0 -10 -10 -10zM913 0h-148q-10 0 -10 10v467q0 10 10 10h148q10 0 10 -10v-467q0 -10 -10 -10z" />
    <glyph glyph-name="f_f_l" unicode="ffl" horiz-adv-x="1017" 
d="M231 0h-147q-10 0 -10 10v351q0 6 -6 6h-28q-10 0 -10 10v100q0 10 10 10h28q6 0 6 6v14q0 92 42.5 132.5t137.5 40.5h66q10 0 10 -10v-108q0 -10 -10 -10h-29q-29 0 -39.5 -9.5t-10.5 -34.5v-15q0 -6 6 -6h71q10 0 10 -10v-100q0 -10 -10 -10h-71q-6 0 -6 -6v-351
q0 -10 -10 -10zM582 0h-147q-10 0 -10 10v351q0 6 -6 6h-28q-10 0 -10 10v100q0 10 10 10h28q6 0 6 6v14q0 92 42.5 132.5t137.5 40.5h66q10 0 10 -10v-108q0 -10 -10 -10h-29q-30 0 -40 -9.5t-10 -34.5v-15q0 -6 6 -6h71q10 0 10 -10v-100q0 -10 -10 -10h-71q-6 0 -6 -6
v-351q0 -10 -10 -10zM983 -6h-61q-91 0 -130 39.5t-39 131.5v505q0 10 10 10h148q10 0 10 -10v-488q0 -48 41 -48h21q10 0 10 -10v-120q0 -10 -10 -10z" />
    <glyph glyph-name=".notdef" horiz-adv-x="530" 
d="M0 10v660q0 10 10 10h510q10 0 10 -10v-660q0 -10 -10 -10h-510q-10 0 -10 10zM79 81q0 -6 6 -6h360q6 0 6 6v518q0 6 -6 6h-360q-6 0 -6 -6v-518zM219 249q-10 0 -10 10v24q0 29 20 54l39 47q28 32 28 51q0 17 -10 27t-26 10q-33 0 -41 -34q-3 -10 -12 -9l-76 10
q-10 2 -8 11q8 52 45.5 82.5t96.5 30.5q61 0 98.5 -34.5t37.5 -85.5q0 -49 -40 -92l-38 -47q-13 -14 -13 -35v-10q0 -10 -10 -10h-81zM208 123v75q0 10 10 10h83q10 0 10 -10v-75q0 -10 -10 -10h-83q-10 0 -10 10z" />
    <glyph glyph-name=".null" horiz-adv-x="500" 
 />
    <glyph glyph-name="nonmarkingreturn" horiz-adv-x="333" 
 />
    <glyph glyph-name="space" unicode=" " horiz-adv-x="238" 
 />
    <glyph glyph-name="exclam" unicode="!" horiz-adv-x="317" 
d="M106 210q-10 0 -10 10l-24 450q0 10 10 10h153q10 0 10 -10l-24 -450q0 -10 -10 -10h-105zM80 10v126q0 10 10 10h138q10 0 10 -10v-126q0 -10 -10 -10h-138q-10 0 -10 10z" />
    <glyph glyph-name="quotedbl" unicode="&#x22;" horiz-adv-x="406" 
d="M243 455q-10 0 -10 10v205q0 10 10 10h97q10 0 10 -10v-205q0 -10 -10 -10h-97zM66 455q-10 0 -10 10v205q0 10 10 10h97q10 0 10 -10v-205q0 -10 -10 -10h-97z" />
    <glyph glyph-name="numbersign" unicode="#" horiz-adv-x="599" 
d="M71 10l23 170h-62q-10 0 -10 10v100q0 10 10 10h79l12 89h-65q-10 0 -10 10v100q0 10 10 10h81l22 161q2 10 11 10h116q11 0 9 -10l-22 -161h93l22 161q2 10 11 10h116q11 0 9 -10l-22 -161h63q10 0 10 -10v-100q0 -10 -10 -10h-80l-12 -89h66q10 0 10 -10v-100
q0 -10 -10 -10h-82l-23 -170q-2 -10 -11 -10h-116q-11 0 -9 10l23 170h-93l-23 -170q-2 -10 -11 -10h-116q-11 0 -9 10zM246 300h94l12 89h-94z" />
    <glyph glyph-name="dollar" unicode="$" 
d="M45 65q-9 7 -2 16l83 101q6 7 13 1q62 -50 127 -50q40 0 62 18.5t22 52.5q0 51 -70 60l-21 3q-95 12 -148 65.5t-53 137.5q0 82 48 141.5t129 75.5v69q0 10 10 10h83q10 0 10 -10v-67q81 -11 150 -55q10 -7 2 -16l-70 -101q-6 -8 -14 -3q-52 33 -106 33
q-33 0 -53.5 -17.5t-20.5 -45.5q0 -24 16 -38.5t55 -20.5l24 -3q197 -27 197 -205q0 -86 -47.5 -145.5t-132.5 -76.5v-71q0 -10 -10 -10h-83q-10 0 -10 10v66q-110 10 -190 75z" />
    <glyph glyph-name="percent" unicode="%" horiz-adv-x="850" 
d="M167 -2l395 684q6 10 16 10h101q11 0 5 -10l-395 -684q-6 -10 -16 -10h-102q-10 0 -4 10zM206 330q-51 0 -86.5 22.5t-49.5 62.5q-10 32 -10 94t10 94q14 40 49.5 62.5t86.5 22.5t86.5 -22.5t48.5 -62.5q11 -30 11 -94t-11 -94q-13 -40 -48.5 -62.5t-86.5 -22.5zM206 415
q20 0 28 19q3 10 3 75t-3 75q-8 19 -28 19q-22 0 -28 -19q-3 -10 -3 -75t3 -75q6 -19 28 -19zM508 77q-10 32 -10 94t10 94q29 85 136 85q51 0 86.5 -22.5t48.5 -62.5q11 -35 11 -94t-11 -94q-13 -40 -48.5 -62.5t-86.5 -22.5q-107 0 -136 85zM616 96q6 -19 28 -19
q21 0 27 19q4 9 4 75q0 64 -4 75q-6 18 -27 18q-22 0 -28 -18q-3 -12 -3 -75q0 -65 3 -75z" />
    <glyph glyph-name="ampersand" unicode="&#x26;" horiz-adv-x="647" 
d="M45 174q0 55 28 101t95 98q-39 50 -54.5 83.5t-15.5 68.5q0 72 54.5 119.5t135.5 47.5q85 0 137 -47t52 -119q0 -45 -25 -83t-87 -87l72 -90l66 74q7 8 14 1l81 -71q8 -6 2 -14l-80 -93l11 -13q15 -19 38 -19h15q10 0 10 -10v-111q0 -10 -10 -10h-51q-39 0 -63 12t-51 45
q-78 -69 -174 -69q-94 0 -147 50.5t-53 135.5zM283 458q50 40 50 72q0 20 -12 33t-31 13t-31.5 -13t-12.5 -33q0 -24 37 -72zM197 187q0 -27 16.5 -44.5t45.5 -18.5q36 -1 78 36l-87 110q-53 -43 -53 -83z" />
    <glyph glyph-name="quotesingle" unicode="'" horiz-adv-x="229" 
d="M66 455q-10 0 -10 10v205q0 10 10 10h97q10 0 10 -10v-205q0 -10 -10 -10h-97z" />
    <glyph glyph-name="parenleft" unicode="(" horiz-adv-x="329" 
d="M181 -74q-129 179 -129 402q0 224 129 402q8 10 15 10h96q12 0 7 -10q-89 -187 -89 -402q0 -216 89 -402q5 -10 -7 -10h-96q-7 0 -15 10z" />
    <glyph glyph-name="parenright" unicode=")" horiz-adv-x="329" 
d="M30 -74q89 186 89 402q0 215 -89 402q-5 10 7 10h96q7 0 15 -10q129 -178 129 -402q0 -223 -129 -402q-8 -10 -15 -10h-96q-12 0 -7 10z" />
    <glyph glyph-name="asterisk" unicode="*" horiz-adv-x="402" 
d="M167 355q-10 0 -10 10l1 78l-67 -40q-9 -5 -14 4l-34 59q-5 8 4 13l69 38l-69 39q-9 5 -4 13l34 59q5 9 14 4l67 -41l-1 79q0 10 10 10h68q10 0 10 -10l-2 -79l69 41q8 5 13 -4l34 -59q5 -8 -4 -13l-69 -39l69 -38q9 -5 4 -13l-34 -59q-5 -9 -13 -4l-69 41l2 -79
q0 -10 -10 -10h-68z" />
    <glyph glyph-name="plus" unicode="+" 
d="M57 206q-10 0 -10 10v120q0 10 10 10h146q6 0 6 6v148q0 10 10 10h124q10 0 10 -10v-148q0 -6 6 -6h146q10 0 10 -10v-120q0 -10 -10 -10h-146q-6 0 -6 -6v-148q0 -10 -10 -10h-124q-10 0 -10 10v148q0 6 -6 6h-146z" />
    <glyph glyph-name="comma" unicode="," horiz-adv-x="255" 
d="M52 -94v242q0 10 10 10h131q10 0 10 -10v-131q0 -13 -9 -21l-114 -94q-10 -7 -16 -7q-12 0 -12 11z" />
    <glyph glyph-name="hyphen" unicode="-" horiz-adv-x="399" 
d="M49 193q-10 0 -10 10v125q0 10 10 10h301q10 0 10 -10v-125q0 -10 -10 -10h-301z" />
    <glyph glyph-name="period" unicode="." horiz-adv-x="263" 
d="M52 10v138q0 10 10 10h139q10 0 10 -10v-138q0 -10 -10 -10h-139q-10 0 -10 10z" />
    <glyph glyph-name="slash" unicode="/" horiz-adv-x="446" 
d="M36 -2l212 684q3 10 13 10h143q10 0 7 -10l-212 -684q-3 -10 -13 -10h-143q-10 0 -7 10z" />
    <glyph glyph-name="zero" unicode="0" 
d="M64 134q-16 48 -16 206t16 206q23 70 78.5 108t138.5 38q84 0 139 -38t79 -108q15 -49 15 -206q0 -156 -15 -206q-24 -70 -79 -108t-139 -38q-83 0 -138.5 38t-78.5 108zM226 163q12 -37 55 -37q44 0 56 37q7 22 7 177t-7 177q-12 37 -56 37q-43 0 -55 -37
q-8 -21 -8 -177t8 -177z" />
    <glyph glyph-name="one" unicode="1" 
d="M238 10v488h-2l-115 -76q-5 -3 -8.5 -1.5t-3.5 7.5v146q0 8 7 14l122 86q8 6 18 6h139q10 0 10 -10v-660q0 -10 -10 -10h-147q-10 0 -10 10z" />
    <glyph glyph-name="two" unicode="2" 
d="M58 10v112q0 8 5 14l239 268q37 41 37 84q0 30 -16 48t-45 18q-61 0 -68 -76q0 -11 -11 -9l-132 20q-10 2 -8 12q5 83 67 137t159 54q98 0 158.5 -56t60.5 -142q0 -93 -74 -172l-162 -180v-2h226q10 0 10 -10v-120q0 -10 -10 -10h-426q-10 0 -10 10z" />
    <glyph glyph-name="three" unicode="3" 
d="M49 156q-2 10 8 12l133 22q10 2 12 -8q17 -56 75 -56q32 0 51 20t19 55q0 38 -21.5 59t-59.5 21h-27q-10 0 -10 10v116q0 10 10 10h25q33 0 52 18.5t19 51.5q0 31 -17.5 49t-46.5 18q-52 0 -65 -55q-2 -10 -11 -8l-133 21q-10 2 -8 12q14 76 73 122t153 46
q102 0 161 -52.5t59 -135.5q0 -89 -77 -140v-2q89 -47 89 -164q0 -93 -64.5 -151.5t-166.5 -58.5q-95 0 -157 45t-75 123z" />
    <glyph glyph-name="four" unicode="4" 
d="M44 95q-10 0 -10 10v128q0 7 2 11l187 428q3 8 14 8h157q12 0 7 -10l-189 -429v-2h96q6 0 6 6v120q0 10 10 10h140q10 0 10 -10v-120q0 -6 5 -6h39q10 0 10 -10v-124q0 -10 -10 -10h-38q-6 0 -6 -6v-79q0 -10 -10 -10h-140q-10 0 -10 10v79q0 6 -6 6h-264z" />
    <glyph glyph-name="five" unicode="5" 
d="M65 149q0 9 9 12l130 21q10 1 13 -9q16 -47 66 -47q43 0 57 39q7 18 7 57q0 40 -7 58q-13 39 -58 39q-39 0 -55 -32q-5 -10 -14 -10h-128q-10 0 -10 10v383q0 10 10 10h396q10 0 10 -10v-120q0 -10 -10 -10h-258q-6 0 -6 -6v-114h2q37 35 105 35q136 0 173 -114
q15 -47 15 -119q0 -57 -15 -102q-21 -65 -77 -98.5t-136 -33.5q-93 0 -152 45t-67 116z" />
    <glyph glyph-name="six" unicode="6" 
d="M43 207q0 79 54 183l151 283q4 7 12 7h158q12 0 7 -11l-136 -254l1 -1q15 5 34 5q85 0 140.5 -58.5t55.5 -151.5q0 -100 -66.5 -160.5t-172.5 -60.5q-105 0 -171.5 60t-66.5 159zM204 206q0 -35 21.5 -57.5t55.5 -22.5q35 0 56.5 22.5t21.5 57.5q0 36 -21.5 58.5
t-56.5 22.5q-34 0 -55.5 -23t-21.5 -58z" />
    <glyph glyph-name="seven" unicode="7" 
d="M127 11l210 521v3h-117q-6 0 -6 -6v-64q0 -10 -10 -10h-136q-10 0 -10 10v205q0 10 10 10h433q10 0 10 -10v-132q0 -4 -2 -10l-207 -518q-4 -10 -14 -10h-153q-5 0 -7 3.5t-1 7.5z" />
    <glyph glyph-name="eight" unicode="8" 
d="M41 199q0 99 78 154v2q-63 49 -63 135q0 84 61 143t164 59t164 -59t61 -143q0 -87 -62 -135v-2q77 -54 77 -154q0 -96 -68 -153.5t-172 -57.5t-172 57.5t-68 153.5zM281 420q29 0 48 19.5t19 47.5t-19 47.5t-48 19.5t-47.5 -19.5t-18.5 -47.5t18.5 -47.5t47.5 -19.5z
M202 205q0 -35 22 -57t57 -22t57 22t22 57t-22 57.5t-57 22.5t-57 -22.5t-22 -57.5z" />
    <glyph glyph-name="nine" unicode="9" 
d="M137 11l136 254l-2 1q-13 -5 -33 -5q-85 0 -140.5 58.5t-55.5 151.5q0 100 66.5 160.5t172.5 60.5q105 0 171.5 -60t66.5 -159q0 -79 -54 -183l-151 -283q-4 -7 -13 -7h-157q-12 0 -7 11zM281 393q34 0 55.5 23t21.5 58t-21.5 57.5t-55.5 22.5q-35 0 -56.5 -22.5
t-21.5 -57.5q0 -36 21.5 -58.5t56.5 -22.5z" />
    <glyph glyph-name="colon" unicode=":" horiz-adv-x="278" 
d="M70 329q-10 0 -10 10v138q0 10 10 10h138q10 0 10 -10v-138q0 -10 -10 -10h-138zM60 10v138q0 10 10 10h138q10 0 10 -10v-138q0 -10 -10 -10h-138q-10 0 -10 10z" />
    <glyph glyph-name="semicolon" unicode=";" horiz-adv-x="278" 
d="M70 329q-10 0 -10 10v138q0 10 10 10h138q10 0 10 -10v-138q0 -10 -10 -10h-138zM64 -94v242q0 10 10 10h131q10 0 10 -10v-131q0 -12 -9 -20l-115 -95q-8 -7 -16 -7q-11 0 -11 11z" />
    <glyph glyph-name="less" unicode="&#x3c;" 
d="M58 211q-10 3 -10 14v102q0 11 10 14l448 167q10 3 10 -6v-129q0 -9 -10 -13l-243 -83v-2l243 -83q10 -4 10 -13v-129q0 -9 -10 -6z" />
    <glyph glyph-name="equal" unicode="=" 
d="M57 316q-10 0 -10 10v120q0 10 10 10h448q10 0 10 -10v-120q0 -10 -10 -10h-448zM57 96q-10 0 -10 10v120q0 10 10 10h448q10 0 10 -10v-120q0 -10 -10 -10h-448z" />
    <glyph glyph-name="greater" unicode="&#x3e;" 
d="M47 50v129q0 9 10 13l244 83v2l-244 83q-10 4 -10 13v129q0 9 10 6l448 -167q10 -3 10 -14v-102q0 -11 -10 -14l-448 -167q-10 -3 -10 6z" />
    <glyph glyph-name="question" unicode="?" horiz-adv-x="483" 
d="M165 210q-10 0 -10 10v41q0 49 31 84l60 71q44 47 44 80q0 24 -15.5 40t-40.5 16q-52 0 -65 -61q-2 -10 -11 -8l-129 18q-10 1 -8 11q11 82 68.5 131t148.5 49q95 0 155 -54.5t60 -133.5q0 -74 -68 -145l-53 -64q-21 -23 -21 -58v-17q0 -10 -10 -10h-136zM155 10v126
q0 10 10 10h138q10 0 10 -10v-126q0 -10 -10 -10h-138q-10 0 -10 10z" />
    <glyph glyph-name="at" unicode="@" horiz-adv-x="931" 
d="M41 262q0 188 117 303t307 115q189 0 306 -114t117 -299q0 -103 -55.5 -159t-136.5 -56q-103 0 -139 66h-1q-35 -66 -136 -66q-112 0 -141 94q-14 41 -14 119t14 120q29 94 130 94q78 0 107 -50h1v30q0 9 9 9h118q8 0 8 -9v-237q0 -28 13.5 -42.5t34.5 -14.5q59 0 59 102
q0 136 -79.5 217.5t-214.5 81.5q-136 0 -215 -82.5t-79 -221.5q0 -135 79.5 -216t214.5 -81q106 0 198 50q9 6 14 -4l51 -74q5 -8 -3 -14q-109 -72 -260 -72q-189 0 -306.5 113.5t-117.5 297.5zM405 203q13 -37 54 -37t53 37q5 15 5 62q0 48 -5 62q-12 38 -53 38
q-40 0 -54 -38q-5 -18 -5 -62q0 -42 5 -62z" />
    <glyph glyph-name="A" unicode="A" horiz-adv-x="674" 
d="M10 10l235 660q3 10 13 10h163q10 0 13 -10l230 -660q3 -10 -7 -10h-165q-10 0 -13 10l-32 105h-221l-32 -105q-3 -10 -13 -10h-164q-10 0 -7 10zM271 261h132l-63 212h-3z" />
    <glyph glyph-name="B" unicode="B" horiz-adv-x="614" 
d="M55 10v660q0 10 10 10h277q111 0 166.5 -48.5t55.5 -132.5q0 -102 -83 -146v-2q40 -15 67.5 -57t27.5 -98q0 -97 -63 -146.5t-174 -49.5h-274q-10 0 -10 10zM237 407h71q81 0 81 70t-81 70h-71q-6 0 -6 -6v-128q0 -6 6 -6zM231 139q0 -6 6 -6h80q83 0 83 77q0 36 -21 56
t-62 20h-80q-6 0 -6 -6v-141z" />
    <glyph glyph-name="C" unicode="C" horiz-adv-x="574" 
d="M59 156q-20 61 -20 184t20 184q27 83 90.5 125.5t156.5 42.5q89 0 152 -40.5t92 -114.5q4 -10 -5 -14l-133 -58q-10 -4 -14 6q-30 64 -89 64q-63 0 -82 -59q-10 -30 -10 -136t10 -136q19 -59 82 -59q59 0 89 64q4 10 14 6l133 -58q9 -4 5 -14q-29 -74 -92 -114.5
t-152 -40.5q-93 0 -156.5 42.5t-90.5 125.5z" />
    <glyph glyph-name="D" unicode="D" horiz-adv-x="631" 
d="M55 10v660q0 10 10 10h263q192 0 242 -155q20 -63 20 -185t-20 -185q-50 -155 -242 -155h-263q-10 0 -10 10zM231 162q0 -6 6 -6h53q47 0 73.5 15t38.5 50q10 33 10 119t-10 119q-12 35 -38.5 50t-73.5 15h-53q-6 0 -6 -6v-356z" />
    <glyph glyph-name="E" unicode="E" horiz-adv-x="557" 
d="M55 10v660q0 10 10 10h445q10 0 10 -10v-129q0 -10 -10 -10h-273q-6 0 -6 -6v-103q0 -6 6 -6h224q10 0 10 -10v-126q0 -10 -10 -10h-224q-6 0 -6 -6v-109q0 -6 6 -6h273q10 0 10 -10v-129q0 -10 -10 -10h-445q-10 0 -10 10z" />
    <glyph glyph-name="F" unicode="F" horiz-adv-x="552" 
d="M55 10v660q0 10 10 10h445q10 0 10 -10v-129q0 -10 -10 -10h-273q-6 0 -6 -6v-112q0 -6 6 -6h224q10 0 10 -10v-126q0 -10 -10 -10h-224q-6 0 -6 -6v-245q0 -10 -10 -10h-156q-10 0 -10 10z" />
    <glyph glyph-name="G" unicode="G" horiz-adv-x="628" 
d="M59 155q-20 65 -20 185t20 185q26 81 94.5 124t161.5 43q91 0 154.5 -39t92.5 -106q5 -11 -5 -16l-130 -55q-10 -5 -15 4q-34 55 -97 55q-69 0 -88 -60q-10 -30 -10 -135q0 -102 10 -135q21 -60 93 -60q73 0 90 54q6 18 6 44q0 6 -6 6h-74q-10 0 -10 10v113q0 10 10 10
h243q10 0 10 -10v-52q0 -104 -18 -158q-27 -84 -94.5 -129t-161.5 -45q-93 0 -161.5 43t-94.5 124z" />
    <glyph glyph-name="H" unicode="H" horiz-adv-x="659" 
d="M55 10v660q0 10 10 10h156q10 0 10 -10v-241q0 -6 6 -6h185q6 0 6 6v241q0 10 10 10h156q10 0 10 -10v-660q0 -10 -10 -10h-156q-10 0 -10 10v251q0 6 -6 6h-185q-6 0 -6 -6v-251q0 -10 -10 -10h-156q-10 0 -10 10z" />
    <glyph glyph-name="I" unicode="I" horiz-adv-x="286" 
d="M55 10v660q0 10 10 10h156q10 0 10 -10v-660q0 -10 -10 -10h-156q-10 0 -10 10z" />
    <glyph glyph-name="J" unicode="J" horiz-adv-x="534" 
d="M18 81q-5 8 1 14l111 88q8 6 14 -2q32 -36 75 -36q86 0 86 100v425q0 10 10 10h156q10 0 10 -10v-411q0 -134 -67 -202.5t-193 -68.5q-65 0 -120.5 26t-82.5 67z" />
    <glyph glyph-name="K" unicode="K" horiz-adv-x="657" 
d="M55 10v660q0 10 10 10h156q10 0 10 -10v-266l195 267q8 9 17 9h176q6 0 7.5 -4t-1.5 -9l-203 -263l215 -393q2 -4 0.5 -7.5t-6.5 -3.5h-179q-12 0 -16 9l-132 256l-73 -97v-158q0 -10 -10 -10h-156q-10 0 -10 10z" />
    <glyph glyph-name="L" unicode="L" horiz-adv-x="554" 
d="M55 10v660q0 10 10 10h156q10 0 10 -10v-508q0 -6 6 -6h288q10 0 10 -10v-136q0 -10 -10 -10h-460q-10 0 -10 10z" />
    <glyph glyph-name="M" unicode="M" horiz-adv-x="772" 
d="M55 10v660q0 10 10 10h148q13 0 17 -10l157 -355h4l153 355q4 10 17 10h146q10 0 10 -10v-660q0 -10 -10 -10h-139q-10 0 -10 10v350h-5l-109 -254q-6 -13 -19 -13h-78q-11 0 -19 13l-109 254h-5v-350q0 -10 -10 -10h-139q-10 0 -10 10z" />
    <glyph glyph-name="N" unicode="N" horiz-adv-x="653" 
d="M55 10v660q0 10 10 10h147q13 0 17 -10l205 -385h4v385q0 10 10 10h140q10 0 10 -10v-660q0 -10 -10 -10h-147q-13 0 -17 10l-203 384h-6v-384q0 -10 -10 -10h-140q-10 0 -10 10z" />
    <glyph glyph-name="O" unicode="O" horiz-adv-x="628" 
d="M314 -12q-93 0 -161 43t-94 124q-20 65 -20 185t20 185q26 81 94 124t161 43t161 -43t94 -124q20 -61 20 -185t-20 -185q-26 -81 -94 -124t-161 -43zM314 145q68 0 87 60q10 29 10 135t-10 135q-19 60 -87 60t-87 -60q-10 -29 -10 -135t10 -135q19 -60 87 -60z" />
    <glyph glyph-name="P" unicode="P" horiz-adv-x="612" 
d="M221 0h-156q-10 0 -10 10v660q0 10 10 10h272q121 0 186.5 -62t65.5 -164q0 -101 -66 -164t-186 -63h-100q-6 0 -6 -6v-211q0 -10 -10 -10zM327 376q41 0 63.5 21t22.5 57t-22.5 56.5t-63.5 20.5h-90q-6 0 -6 -6v-143q0 -6 6 -6h90z" />
    <glyph glyph-name="Q" unicode="Q" horiz-adv-x="628" 
d="M636 46l-105 -99q-8 -7 -15 0l-66 70q-61 -29 -136 -29q-93 0 -161 43t-94 124q-20 61 -20 185t20 185q26 81 94 124t161 43t161 -43t94 -124q20 -65 20 -185t-20 -185q-4 -12 -7 -18l74 -76q8 -7 0 -15zM314 144q68 0 87 61q10 29 10 135t-10 135q-19 61 -87 61
q-67 0 -88 -61q-9 -30 -9 -135t9 -135q21 -61 88 -61z" />
    <glyph glyph-name="R" unicode="R" horiz-adv-x="629" 
d="M593 0h-173q-11 0 -15 10l-103 232h-65q-6 0 -6 -6v-226q0 -10 -10 -10h-156q-10 0 -10 10v660q0 10 10 10h277q115 0 180 -60.5t65 -158.5q0 -64 -29 -113.5t-83 -76.5l125 -259q2 -4 0 -8t-7 -4zM331 387q37 0 58.5 19.5t21.5 52.5t-21.5 52.5t-58.5 19.5h-94
q-6 0 -6 -6v-132q0 -6 6 -6h94z" />
    <glyph glyph-name="S" unicode="S" horiz-adv-x="605" 
d="M300 -12q-80 0 -157 28.5t-117 68.5q-9 8 -1 16l90 106q7 8 14 1q77 -68 173 -68q46 0 71 17.5t25 46.5q0 23 -19 37t-67 20l-36 5q-227 32 -227 214q0 96 69 154t184 58q144 0 243 -75q8 -6 2 -15l-75 -109q-6 -8 -14 -3q-77 51 -153 51q-36 0 -55.5 -15.5t-19.5 -41.5
q0 -23 20 -37t67 -20l36 -5q113 -16 169 -68.5t56 -147.5q0 -98 -72.5 -158t-205.5 -60z" />
    <glyph glyph-name="T" unicode="T" horiz-adv-x="566" 
d="M361 0h-156h-3q-2 0 -5 3q-2 2 -2 4v3v508q0 4 -5 6h-1h-167h-3q-2 0 -4 2l-1 1q0 1 -1 1q-1 2 -1 6v136q0 8 7 10h3h522q4 0 7 -3q1 -1 1 -2q2 -2 2 -5v-136q0 -5 -3 -8q-2 -2 -5 -2h-2h-167q-3 0 -4 -1l-2 -2v-3v-508v-3q-1 -3 -5 -6q-1 -1 -5 -1z" />
    <glyph glyph-name="U" unicode="U" horiz-adv-x="647" 
d="M324 -12q-126 0 -198.5 71t-72.5 204v407q0 10 10 10h156q10 0 10 -10v-418q0 -50 26 -78.5t69 -28.5q44 0 69 28t25 79v418q0 10 10 10h156q10 0 10 -10v-407q0 -133 -73 -204t-197 -71z" />
    <glyph glyph-name="V" unicode="V" horiz-adv-x="629" 
d="M390 0h-151q-10 0 -13 10l-217 659q-4 11 9 11h164q10 0 13 -10l121 -410h3l117 410q3 10 13 10h163q12 0 8 -11l-217 -659q-3 -10 -13 -10z" />
    <glyph glyph-name="W" unicode="W" horiz-adv-x="907" 
d="M700 0h-125q-10 0 -13 10l-107 380h-2l-108 -380q-3 -10 -13 -10h-125q-10 0 -13 10l-185 660q-2 10 8 10h164q11 0 13 -10l88 -396h2l106 396q3 10 13 10h103q10 0 13 -10l109 -396h2l85 396q2 10 12 10h164q10 0 7 -10l-184 -660q-3 -10 -14 -10z" />
    <glyph glyph-name="X" unicode="X" horiz-adv-x="616" 
d="M600 0h-168q-11 0 -17 10l-107 183h-2l-107 -183q-6 -10 -17 -10h-168q-12 0 -6 11l204 340l-191 318q-5 11 6 11h168q11 0 17 -10l94 -161h2l94 161q6 10 17 10h168q13 0 6 -11l-190 -318l203 -340q7 -11 -6 -11z" />
    <glyph glyph-name="Y" unicode="Y" horiz-adv-x="602" 
d="M379 0h-156q-10 0 -10 10v253l-206 406q-4 11 8 11h157q10 0 16 -10l114 -232h3l112 232q4 10 16 10h154q12 0 8 -11l-206 -406v-253q0 -10 -10 -10z" />
    <glyph glyph-name="Z" unicode="Z" 
d="M516 0h-471q-10 0 -10 10v134q0 6 3 10l282 367v3h-264q-10 0 -10 10v136q0 10 10 10h460q10 0 10 -10v-134q0 -6 -3 -10l-282 -367v-3h275q10 0 10 -10v-136q0 -10 -10 -10z" />
    <glyph glyph-name="bracketleft" unicode="[" horiz-adv-x="312" 
d="M277 -84h-213q-10 0 -10 10v804q0 10 10 10h213q10 0 10 -10v-104q0 -10 -10 -10h-73q-6 0 -6 -6v-564q0 -6 6 -6h73q10 0 10 -10v-104q0 -10 -10 -10z" />
    <glyph glyph-name="backslash" unicode="\" horiz-adv-x="446" 
d="M404 -12h-143q-10 0 -13 10l-212 684q-3 10 7 10h143q10 0 13 -10l212 -684q3 -10 -7 -10z" />
    <glyph glyph-name="bracketright" unicode="]" horiz-adv-x="312" 
d="M248 -84h-213q-10 0 -10 10v104q0 10 10 10h73q6 0 6 6v564q0 6 -6 6h-73q-10 0 -10 10v104q0 10 10 10h213q10 0 10 -10v-804q0 -10 -10 -10z" />
    <glyph glyph-name="asciicircum" unicode="^" 
d="M511 243h-135q-10 0 -14 10l-80 224h-2l-80 -224q-3 -10 -13 -10h-135q-10 0 -7 10l167 417q5 10 14 10h111q9 0 14 -10l166 -417q5 -10 -6 -10z" />
    <glyph glyph-name="underscore" unicode="_" horiz-adv-x="550" 
d="M550 -169h-550v111h550v-111z" />
    <glyph glyph-name="grave" unicode="`" horiz-adv-x="489" 
d="M359 546h-116q-9 0 -17 10l-103 136q-3 4 -1.5 7t6.5 3h139q11 0 17 -10l80 -136q5 -10 -5 -10z" />
    <glyph glyph-name="a" unicode="a" horiz-adv-x="532" 
d="M472 0h-138q-10 0 -10 10v28h-1q-43 -50 -131 -50q-68 0 -113 38t-45 112q0 79 56 119.5t151 40.5h77q6 0 6 6v13q0 28 -19.5 39.5t-74.5 11.5q-65 0 -105 -28q-9 -5 -13 3l-52 92q-4 10 3 16q70 48 189 48q125 0 177.5 -43t52.5 -139v-307q0 -10 -10 -10zM248 108
q76 0 76 52v30q0 6 -6 6h-59q-68 0 -68 -46q0 -42 57 -42z" />
    <glyph glyph-name="b" unicode="b" horiz-adv-x="557" 
d="M347 -12q-87 0 -125 58h-1v-36q0 -10 -10 -10h-148q-10 0 -10 10v660q0 10 10 10h148q10 0 10 -10v-229h1q38 58 125 58q123 0 161 -117q17 -55 17 -139q0 -83 -17 -138q-38 -117 -161 -117zM288 126q45 0 60 41q7 22 7 76q0 55 -7 77q-15 41 -60 41q-46 0 -59 -41
q-8 -21 -8 -77q0 -55 8 -76q13 -41 59 -41z" />
    <glyph glyph-name="c" unicode="c" horiz-adv-x="493" 
d="M263 -12q-80 0 -137.5 37t-79.5 106q-14 39 -14 112q0 74 14 113q22 69 79.5 106t137.5 37q71 0 124.5 -31.5t77.5 -80.5q4 -9 -4 -14l-112 -58q-11 -7 -15 3q-24 43 -66 43q-44 0 -59 -42q-7 -21 -7 -76q0 -54 7 -75q15 -42 59 -42q42 0 66 43q4 10 15 3l112 -58
q8 -5 4 -14q-24 -49 -77.5 -80.5t-124.5 -31.5z" />
    <glyph glyph-name="d" unicode="d" horiz-adv-x="557" 
d="M494 0h-148q-10 0 -10 10v36h-1q-38 -58 -125 -58q-123 0 -161 117q-17 55 -17 138q0 84 17 139q38 117 161 117q87 0 125 -58h1v229q0 10 10 10h148q10 0 10 -10v-660q0 -10 -10 -10zM269 126q46 0 59 41q8 21 8 76q0 56 -8 77q-13 41 -59 41q-45 0 -60 -41
q-7 -22 -7 -77q0 -54 7 -76q15 -41 60 -41z" />
    <glyph glyph-name="e" unicode="e" horiz-adv-x="533" 
d="M275 -12q-88 0 -146.5 37.5t-80.5 105.5q-16 46 -16 112t15 113q23 68 79.5 105.5t138.5 37.5q86 0 142.5 -36.5t77.5 -104.5q16 -48 16 -152q0 -10 -11 -10h-289q-6 0 -6 -6q2 -14 4 -20q17 -53 94 -53q61 0 109 39q8 7 15 0l71 -73q9 -7 -1 -15q-83 -80 -212 -80z
M201 298h132q6 0 6 6q0 19 -4 30q-14 44 -68 44t-68 -44q-4 -16 -4 -30q0 -6 6 -6z" />
    <glyph glyph-name="f" unicode="f" horiz-adv-x="351" 
d="M231 0h-147q-10 0 -10 10v351q0 6 -6 6h-28q-10 0 -10 10v100q0 10 10 10h28q6 0 6 6v14q0 92 42.5 132.5t137.5 40.5h66q10 0 10 -10v-108q0 -10 -10 -10h-29q-29 0 -39.5 -9.5t-10.5 -34.5v-15q0 -6 6 -6h71q10 0 10 -10v-100q0 -10 -10 -10h-71q-6 0 -6 -6v-351
q0 -10 -10 -10z" />
    <glyph glyph-name="g" unicode="g" horiz-adv-x="552" 
d="M240 -192q-56 0 -110.5 22t-80.5 54q-5 7 1 15l84 86q8 7 15 0q47 -39 96 -39q45 0 65.5 24t20.5 75v37h-1q-34 -57 -124 -57q-122 0 -160 117q-16 48 -16 120q0 71 16 120q38 117 160 117q89 0 124 -58h1v36q0 10 10 10h148q10 0 10 -10v-402q0 -138 -65 -202.5
t-194 -64.5zM265 162q46 0 59 43q7 24 7 57q0 32 -7 57q-14 42 -59 42t-58 -42q-7 -20 -7 -57t7 -57q13 -43 58 -43z" />
    <glyph glyph-name="h" unicode="h" horiz-adv-x="558" 
d="M498 0h-148q-10 0 -10 10v278q0 71 -59 71q-28 0 -44 -19t-16 -52v-278q0 -10 -10 -10h-148q-10 0 -10 10v660q0 10 10 10h148q10 0 10 -10v-228h1q39 57 125 57q80 0 120.5 -49t40.5 -133v-307q0 -10 -10 -10z" />
    <glyph glyph-name="i" unicode="i" horiz-adv-x="274" 
d="M211 550h-148q-10 0 -10 10v110q0 10 10 10h148q10 0 10 -10v-110q0 -10 -10 -10zM211 0h-148q-10 0 -10 10v467q0 10 10 10h148q10 0 10 -10v-467q0 -10 -10 -10z" />
    <glyph glyph-name="j" unicode="j" horiz-adv-x="274" 
d="M211 550h-148q-10 0 -10 10v110q0 10 10 10h148q10 0 10 -10v-110q0 -10 -10 -10zM22 -180h-38q-10 0 -10 10v118q0 10 10 10h15q31 0 42.5 11t11.5 44v464q0 10 10 10h148q10 0 10 -10v-464q0 -101 -50 -147t-149 -46z" />
    <glyph glyph-name="k" unicode="k" horiz-adv-x="540" 
d="M525 0h-159q-11 0 -15 10l-95 188l-36 -48v-140q0 -10 -10 -10h-147q-10 0 -10 10v660q0 10 10 10h147q10 0 10 -10v-342l114 149q9 10 19 10h153q4 0 5.5 -3.5t-1.5 -6.5l-143 -166l163 -301q6 -10 -5 -10z" />
    <glyph glyph-name="l" unicode="l" horiz-adv-x="315" 
d="M281 -6h-61q-91 0 -130 39.5t-39 131.5v505q0 10 10 10h148q10 0 10 -10v-488q0 -48 41 -48h21q10 0 10 -10v-120q0 -10 -10 -10z" />
    <glyph glyph-name="m" unicode="m" horiz-adv-x="845" 
d="M785 0h-148q-10 0 -10 10v278q0 33 -15.5 52t-44.5 19q-28 0 -43.5 -19t-15.5 -52v-278q0 -10 -10 -10h-148q-10 0 -10 10v278q0 71 -59 71q-28 0 -44 -19t-16 -52v-278q0 -10 -10 -10h-148q-10 0 -10 10v467q0 10 10 10h148q10 0 10 -10v-35h1q39 57 125 57
q87 0 128 -60h1q55 60 149 60q84 0 127 -48t43 -134v-307q0 -10 -10 -10z" />
    <glyph glyph-name="n" unicode="n" horiz-adv-x="558" 
d="M498 0h-148q-10 0 -10 10v278q0 71 -59 71q-28 0 -44 -19t-16 -52v-278q0 -10 -10 -10h-148q-10 0 -10 10v467q0 10 10 10h148q10 0 10 -10v-35h1q39 57 125 57q80 0 120.5 -49t40.5 -133v-307q0 -10 -10 -10z" />
    <glyph glyph-name="o" unicode="o" horiz-adv-x="538" 
d="M269 -12q-82 0 -141 36.5t-81 104.5q-15 49 -15 114q0 66 15 115q22 68 81 104.5t141 36.5t140.5 -36t81.5 -105q15 -49 15 -115q0 -65 -15 -114q-23 -69 -81.5 -105t-140.5 -36zM269 126q45 0 60 41q7 25 7 76q0 52 -7 77q-15 41 -60 41t-60 -41q-7 -25 -7 -77
q0 -51 7 -76q15 -41 60 -41z" />
    <glyph glyph-name="p" unicode="p" horiz-adv-x="557" 
d="M211 -180h-148q-10 0 -10 10v647q0 10 10 10h148q10 0 10 -10v-36h1q38 58 125 58q123 0 161 -117q17 -55 17 -139q0 -83 -17 -138q-38 -117 -161 -117q-87 0 -125 58h-1v-216q0 -10 -10 -10zM288 126q45 0 60 41q7 22 7 76q0 55 -7 77q-15 41 -60 41q-46 0 -59 -41
q-8 -21 -8 -77q0 -55 8 -76q13 -41 59 -41z" />
    <glyph glyph-name="q" unicode="q" horiz-adv-x="557" 
d="M494 -180h-148q-10 0 -10 10v216h-1q-38 -58 -125 -58q-123 0 -161 117q-17 55 -17 138q0 84 17 139q38 117 161 117q87 0 125 -58h1v36q0 10 10 10h148q10 0 10 -10v-647q0 -10 -10 -10zM269 126q46 0 59 41q8 21 8 76q0 56 -8 77q-13 41 -59 41q-45 0 -60 -41
q-7 -22 -7 -77q0 -54 7 -76q15 -41 60 -41z" />
    <glyph glyph-name="r" unicode="r" horiz-adv-x="429" 
d="M211 0h-148q-10 0 -10 10v467q0 10 10 10h148q10 0 10 -10v-43h1q35 65 126 65q43 0 67 -19q8 -4 5 -13l-57 -141q-5 -6 -14 -1q-37 23 -71 19q-57 -4 -57 -85v-249q0 -10 -10 -10z" />
    <glyph glyph-name="s" unicode="s" horiz-adv-x="512" 
d="M255 -12q-143 0 -232 75q-7 7 -1 14l71 85q6 6 14 2q79 -52 158 -52q62 0 62 35q0 14 -12.5 21t-48.5 11l-54 5q-168 19 -168 155q0 73 56 116.5t154 43.5q128 0 210 -61q7 -6 2 -15l-63 -80q-6 -7 -15 -3q-62 38 -136 38q-51 0 -51 -30q0 -13 11.5 -20t44.5 -10l54 -6
q92 -9 133 -49t40 -105q-1 -78 -61.5 -124t-167.5 -46z" />
    <glyph glyph-name="t" unicode="t" horiz-adv-x="341" 
d="M299 -6h-56q-96 0 -136.5 42.5t-40.5 141.5v183q0 6 -6 6h-28q-10 0 -10 10v100q0 10 10 10h28q6 0 6 6v127q0 10 10 10h146q10 0 10 -10v-127q0 -6 6 -6h61q10 0 10 -10v-100q0 -10 -10 -10h-61q-6 0 -6 -6v-176q0 -29 10 -40t35 -11h22q10 0 10 -10v-120q0 -10 -10 -10
z" />
    <glyph glyph-name="u" unicode="u" horiz-adv-x="555" 
d="M492 0h-148q-10 0 -10 10v35h-1q-41 -57 -124 -57q-80 0 -120 49t-40 133v307q0 10 10 10h148q10 0 10 -10v-278q0 -33 15 -52t44 -19q58 0 58 71v278q0 10 10 10h148q10 0 10 -10v-467q0 -10 -10 -10z" />
    <glyph glyph-name="v" unicode="v" horiz-adv-x="532" 
d="M335 0h-139q-9 0 -12 10l-174 467q-3 10 8 10h154q11 0 14 -10l81 -260h2l78 260q3 10 14 10h153q11 0 8 -10l-174 -467q-3 -10 -13 -10z" />
    <glyph glyph-name="w" unicode="w" horiz-adv-x="772" 
d="M591 0h-116q-9 0 -12 10l-75 250h-2l-76 -250q-3 -10 -12 -10h-116q-9 0 -12 10l-158 466q-4 11 8 11h149q11 0 14 -10l67 -257h2l75 257q3 10 13 10h95q11 0 14 -10l75 -257h2l63 257q3 10 15 10h149q11 0 7 -11l-157 -466q-3 -10 -12 -10z" />
    <glyph glyph-name="x" unicode="x" horiz-adv-x="535" 
d="M515 0h-159q-10 0 -16 9l-73 115h-1l-73 -115q-6 -9 -16 -9h-158q-12 0 -6 10l163 242l-151 225q-6 10 7 10h159q11 0 16 -9l60 -97h1l61 97q6 9 16 9h157q13 0 7 -10l-151 -225l164 -242q2 -4 0 -7t-7 -3z" />
    <glyph glyph-name="y" unicode="y" horiz-adv-x="531" 
d="M133 -180h-37q-10 0 -10 10v118q0 10 10 10h25q47 0 60 41l11 31l-183 447q-4 10 7 10h157q9 0 12 -10l84 -244h2l78 244q3 10 13 10h153q11 0 7 -10l-211 -532q-28 -72 -67 -98.5t-111 -26.5z" />
    <glyph glyph-name="z" unicode="z" horiz-adv-x="494" 
d="M446 0h-396q-10 0 -10 10v108q0 6 3 10l215 223v3h-197q-10 0 -10 10v113q0 10 10 10h385q10 0 10 -10v-113q0 -6 -3 -10l-214 -218v-3h207q10 0 10 -10v-113q0 -10 -10 -10z" />
    <glyph glyph-name="braceleft" unicode="{" horiz-adv-x="367" 
d="M330 -84h-74q-133 0 -133 126v138q0 85 -69 85q-10 0 -10 10v109q0 10 10 10q36 0 52.5 20t16.5 64v136q0 126 133 126h74q10 0 10 -10v-104q0 -10 -10 -10h-24q-42 0 -42 -44v-113q0 -56 -16.5 -85t-55.5 -44v-1q39 -15 55.5 -44t16.5 -85v-116q0 -44 42 -44h24
q10 0 10 -10v-104q0 -10 -10 -10z" />
    <glyph glyph-name="bar" unicode="|" horiz-adv-x="337" 
d="M231 -84h-125q-10 0 -10 10v804q0 10 10 10h125q10 0 10 -10v-804q0 -10 -10 -10z" />
    <glyph glyph-name="braceright" unicode="}" horiz-adv-x="367" 
d="M111 -84h-74q-10 0 -10 10v104q0 10 10 10h24q42 0 42 44v116q0 56 16.5 85t55.5 44v1q-39 15 -55.5 44t-16.5 85v113q0 44 -42 44h-24q-10 0 -10 10v104q0 10 10 10h74q133 0 133 -126v-136q0 -44 16.5 -64t52.5 -20q10 0 10 -10v-109q0 -10 -10 -10q-69 0 -69 -85v-138
q0 -126 -133 -126z" />
    <glyph glyph-name="asciitilde" unicode="~" 
d="M370 183q-49 0 -102 32q-39 25 -63 25q-36 0 -63 -46q-6 -10 -14 -3l-81 51q-7 4 -4 14q23 50 62.5 81t86.5 31q51 0 102 -33q41 -25 64 -25q35 0 62 46q5 9 14 4l82 -52q8 -5 3 -14q-22 -49 -61.5 -80t-87.5 -31z" />
    <glyph glyph-name="uni00A0" unicode="&#xa0;" horiz-adv-x="238" 
 />
    <glyph glyph-name="exclamdown" unicode="&#xa1;" horiz-adv-x="317" 
d="M211 277q10 0 10 -10l24 -450q0 -10 -10 -10h-153q-10 0 -10 10l24 450q0 10 10 10h105zM237 477v-126q0 -10 -10 -10h-138q-10 0 -10 10v126q0 10 10 10h138q10 0 10 -10z" />
    <glyph glyph-name="cent" unicode="&#xa2;" 
d="M230 243q0 -51 8 -75q14 -42 64 -42q46 0 68 43q4 9 16 3l112 -58q8 -5 4 -14q-20 -42 -62.5 -71t-98.5 -38v-78q0 -10 -10 -10h-79q-10 0 -10 10v80q-129 21 -167 138q-14 44 -14 112q0 69 14 113q38 116 167 138v79q0 10 10 10h79q10 0 10 -10v-77q56 -9 98.5 -38.5
t62.5 -70.5q4 -9 -4 -14l-112 -58q-12 -6 -16 3q-23 43 -68 43q-50 0 -64 -42q-8 -24 -8 -76z" />
    <glyph glyph-name="sterling" unicode="&#xa3;" 
d="M497 0h-419q-10 0 -10 10v116q0 8 5 13q35 32 35 80v38q0 6 -6 6h-34q-10 0 -10 10v96q0 10 10 10h34q6 0 6 6v105q0 96 54.5 149t150.5 53q81 0 132.5 -42t60.5 -107q2 -10 -8 -12l-129 -27q-10 -2 -12 8q-8 42 -42 42q-40 0 -40 -52v-117q0 -6 6 -6h125q10 0 10 -10
v-96q0 -10 -10 -10h-125q-6 0 -6 -6v-27q0 -60 -29 -89v-2h251q10 0 10 -10v-119q0 -10 -10 -10z" />
    <glyph glyph-name="currency" unicode="&#xa4;" 
d="M531 121l-83 -85q-8 -6 -14 0l-61 61q-42 -21 -92 -21q-51 0 -91 21l-60 -60q-7 -7 -14 0l-84 85q-6 6 0 14l60 59q-19 39 -19 89q0 46 19 89l-60 61q-8 6 0 14l83 84q8 6 14 0l61 -61q44 21 91 21t91 -21l61 61q7 7 14 0l84 -84q7 -7 0 -14l-62 -62q20 -42 20 -88
t-19 -89l61 -60q8 -8 0 -14zM281 195q37 0 62 25.5t25 63.5t-25 63.5t-62 25.5t-61.5 -25.5t-24.5 -63.5t24.5 -63.5t61.5 -25.5z" />
    <glyph glyph-name="yen" unicode="&#xa5;" 
d="M355 0h-147q-10 0 -10 10v112q0 6 -6 6h-112q-10 0 -10 10v62q0 10 10 10h112q6 0 6 6v29q0 6 -6 6h-112q-10 0 -10 10v62q0 10 10 10h87v2l-145 335q-4 10 7 10h156q11 0 15 -10l82 -237h3l81 237q3 10 15 10h153q11 0 7 -10l-145 -335v-2h87q10 0 10 -10v-62
q0 -10 -10 -10h-112q-6 0 -6 -6v-29q0 -6 6 -6h112q10 0 10 -10v-62q0 -10 -10 -10h-112q-6 0 -6 -6v-112q0 -10 -10 -10z" />
    <glyph glyph-name="brokenbar" unicode="&#xa6;" horiz-adv-x="337" 
d="M231 388h-125q-10 0 -10 10v332q0 10 10 10h125q10 0 10 -10v-332q0 -10 -10 -10zM231 -84h-125q-10 0 -10 10v336q0 10 10 10h125q10 0 10 -10v-336q0 -10 -10 -10z" />
    <glyph glyph-name="section" unicode="&#xa7;" horiz-adv-x="531" 
d="M262 -194q-88 0 -140 42.5t-58 107.5q-2 10 7 11l124 19q10 2 11 -8q5 -48 53 -48q52 0 52 46q0 28 -20.5 45.5t-76.5 32.5q-163 44 -163 196q0 95 83 148v2q-61 44 -61 127q0 70 54 118.5t142 48.5q87 0 138 -44.5t57 -107.5q2 -10 -7 -11l-122 -18q-9 -2 -11 7
q-7 50 -52 50q-23 0 -36.5 -12.5t-13.5 -32.5q0 -26 21.5 -43t74.5 -32q162 -47 162 -196q0 -48 -23.5 -86.5t-59.5 -61.5v-2q63 -43 63 -133q0 -71 -54 -118t-144 -47zM266 181q30 0 47.5 19.5t17.5 51.5t-17.5 51.5t-47.5 19.5q-31 0 -48.5 -19.5t-17.5 -51.5t17.5 -51.5
t48.5 -19.5z" />
    <glyph glyph-name="dieresis" unicode="&#xa8;" horiz-adv-x="489" 
d="M401 550h-108q-10 0 -10 10v110q0 10 10 10h108q10 0 10 -10v-110q0 -10 -10 -10zM196 550h-108q-10 0 -10 10v110q0 10 10 10h108q10 0 10 -10v-110q0 -10 -10 -10z" />
    <glyph glyph-name="copyright" unicode="&#xa9;" horiz-adv-x="794" 
d="M397 -13q-151 0 -251.5 100.5t-100.5 251.5t100.5 252t251.5 101t251.5 -101t100.5 -252t-100.5 -251.5t-251.5 -100.5zM397 71q116 0 191 76t75 192q0 117 -75 193t-191 76t-191 -76t-75 -193q0 -116 75 -192t191 -76zM404 145q-63 0 -109 28.5t-64 83.5q-10 29 -10 84
q0 54 10 83q18 55 64 83.5t109 28.5q55 0 97 -23t61 -60q6 -10 -4 -13l-85 -44q-9 -4 -14 4q-18 30 -51 30q-39 0 -50 -34q-5 -17 -5 -55q0 -39 5 -56q11 -34 50 -34q33 0 51 31q5 7 14 3l85 -43q10 -5 4 -14q-19 -37 -61 -60t-97 -23z" />
    <glyph glyph-name="ordfeminine" unicode="&#xaa;" horiz-adv-x="367" 
d="M316 392h-87q-10 0 -10 10v14h-2q-24 -30 -80 -30q-44 0 -73 22.5t-29 65.5q0 46 34.5 71.5t96.5 25.5h46q6 0 6 6v5q0 25 -56 25q-40 0 -67 -18q-9 -6 -14 4l-31 53q-5 9 3 14q50 29 122 29q80 0 115.5 -25.5t35.5 -82.5v-179q0 -10 -10 -10zM171 461q47 0 47 29v10
q0 6 -6 6h-38q-34 0 -34 -23q0 -22 31 -22z" />
    <glyph glyph-name="guillemotleft" unicode="&#xab;" horiz-adv-x="586" 
d="M519 23l-237 234q-7 7 0 14l237 234q3 3 6.5 1.5t3.5 -5.5v-138q0 -9 -10 -19l-77 -76q-4 -4 0 -8l77 -76q10 -10 10 -19v-138q0 -4 -3.5 -5.5t-6.5 1.5zM258 23l-236 234q-7 7 0 14l236 234q3 3 6.5 1.5t3.5 -5.5v-138q0 -10 -10 -19l-76 -76q-4 -4 0 -8l76 -76
q10 -9 10 -19v-138q0 -4 -3.5 -5.5t-6.5 1.5z" />
    <glyph glyph-name="logicalnot" unicode="&#xac;" 
d="M505 76h-123q-10 0 -10 10v114q0 6 -6 6h-309q-10 0 -10 10v120q0 10 10 10h448q10 0 10 -10v-250q0 -10 -10 -10z" />
    <glyph glyph-name="uni00AD" unicode="&#xad;" horiz-adv-x="400" 
d="M350 193h-301q-10 0 -10 10v125q0 10 10 10h301q10 0 10 -10v-125q0 -10 -10 -10z" />
    <glyph glyph-name="registered" unicode="&#xae;" horiz-adv-x="437" 
d="M218 301q-82 0 -137.5 55t-55.5 137q0 81 55.5 136t137.5 55t138 -55t56 -136q0 -82 -55.5 -137t-138.5 -55zM218 342q65 0 107 42.5t42 108.5t-42 108t-107 42q-64 0 -106 -42t-42 -108t42 -108.5t106 -42.5zM190 388h-50q-7 0 -7 7v198q0 7 7 7h93q40 0 61.5 -18.5
t21.5 -51.5q0 -42 -37 -61l37 -74q2 -7 -5 -7h-55q-7 0 -10 7l-30 65h-15q-4 0 -4 -4v-61q0 -7 -7 -7zM227 509q25 0 25 21q0 20 -25 20h-26q-4 0 -4 -4v-32q0 -5 4 -5h26z" />
    <glyph glyph-name="macron" unicode="&#xaf;" horiz-adv-x="489" 
d="M395 562h-301q-10 0 -10 10v91q0 10 10 10h301q10 0 10 -10v-91q0 -10 -10 -10z" />
    <glyph glyph-name="degree" unicode="&#xb0;" horiz-adv-x="407" 
d="M203 378q-67 0 -112.5 45t-45.5 113t45.5 113t112.5 45q68 0 113.5 -45.5t45.5 -112.5t-45.5 -112.5t-113.5 -45.5zM203 475q26 0 43 17t17 44t-17 44.5t-43 17.5t-42.5 -17.5t-16.5 -44.5t16.5 -44t42.5 -17z" />
    <glyph glyph-name="plusminus" unicode="&#xb1;" 
d="M343 184h-124q-10 0 -10 10v147q0 6 -6 6h-146q-10 0 -10 10v119q0 10 10 10h146q6 0 6 6v147q0 10 10 10h124q10 0 10 -10v-147q0 -6 6 -6h146q10 0 10 -10v-119q0 -10 -10 -10h-146q-6 0 -6 -6v-147q0 -10 -10 -10zM505 0h-448q-10 0 -10 10v120q0 10 10 10h448
q10 0 10 -10v-120q0 -10 -10 -10z" />
    <glyph glyph-name="twosuperior" unicode="&#xb2;" horiz-adv-x="366" 
d="M322 430h-277q-10 0 -10 10v76q0 11 8 18l146 137q23 23 23 45q0 31 -31 31q-32 0 -35 -36q-2 -11 -11 -9l-91 13q-9 1 -9 11q2 49 42.5 83t110.5 34q62 0 103 -33.5t41 -92.5q0 -57 -54 -107l-84 -78v-1h128q10 0 10 -10v-81q0 -10 -10 -10z" />
    <glyph glyph-name="threesuperior" unicode="&#xb3;" horiz-adv-x="366" 
d="M184 423q-62 0 -103 26.5t-50 75.5q-2 10 8 12l90 14q9 1 13 -7q12 -25 38 -25q36 0 36 35t-43 35h-13q-10 0 -10 10v74q0 10 10 10h13q16 0 26 8.5t10 23.5q0 32 -32 32q-24 0 -34 -23q-3 -9 -12 -7l-90 14q-10 2 -8 11q9 45 48 73t101 28q69 0 108 -31.5t39 -82.5
t-45 -82v-1q52 -24 52 -94q0 -59 -41 -94t-111 -35z" />
    <glyph glyph-name="acute" unicode="&#xb4;" horiz-adv-x="489" 
d="M246 546h-116q-10 0 -5 10l80 136q6 10 17 10h139q5 0 6.5 -3t-1.5 -7l-103 -136q-8 -10 -17 -10z" />
    <glyph glyph-name="mu" unicode="&#xb5;" horiz-adv-x="559" 
d="M496 0h-148q-10 0 -10 10v37h-1q-26 -44 -77 -51q-20 -1 -38 7h-1v-173q0 -10 -10 -10h-148q-10 0 -10 10v647q0 10 10 10h148q10 0 10 -10v-278q0 -71 59 -71q58 0 58 71v278q0 10 10 10h148q10 0 10 -10v-467q0 -10 -10 -10z" />
    <glyph glyph-name="mu" unicode="&#x3bc;" horiz-adv-x="559" 
d="M496 0h-148q-10 0 -10 10v37h-1q-26 -44 -77 -51q-20 -1 -38 7h-1v-173q0 -10 -10 -10h-148q-10 0 -10 10v647q0 10 10 10h148q10 0 10 -10v-278q0 -71 59 -71q58 0 58 71v278q0 10 10 10h148q10 0 10 -10v-467q0 -10 -10 -10z" />
    <glyph glyph-name="paragraph" unicode="&#xb6;" horiz-adv-x="678" 
d="M600 -180h-114q-10 0 -10 10v730q0 6 -6 6h-68q-6 0 -6 -6v-730q0 -10 -10 -10h-113q-10 0 -10 10v386q-93 6 -153 69.5t-60 162.5q0 103 66.5 167.5t179.5 64.5h304q10 0 10 -10v-840q0 -10 -10 -10z" />
    <glyph glyph-name="periodcentered" unicode="&#xb7;" horiz-adv-x="263" 
d="M201 186h-139q-10 0 -10 10v138q0 10 10 10h139q10 0 10 -10v-138q0 -10 -10 -10z" />
    <glyph glyph-name="cedilla" unicode="&#xb8;" horiz-adv-x="489" 
d="M276 -166h-115q-10 0 -7 10l62 156q4 10 14 10h101q10 0 7 -10l-46 -156q-3 -10 -16 -10z" />
    <glyph glyph-name="onesuperior" unicode="&#xb9;" horiz-adv-x="366" 
d="M268 430h-102q-10 0 -10 10v270h-2l-66 -38q-4 -2 -7 0t-3 6v97q0 10 9 15l62 40q10 6 17 6h102q10 0 10 -10v-386q0 -10 -10 -10z" />
    <glyph glyph-name="ordmasculine" unicode="&#xba;" horiz-adv-x="387" 
d="M194 383q-120 0 -149 90q-8 26 -8 63t8 63q29 90 149 90q119 0 148 -90q8 -26 8 -63t-8 -63q-29 -90 -148 -90zM194 473q27 0 37 26q3 10 3 37q0 26 -3 37q-10 26 -37 26q-28 0 -38 -26q-3 -11 -3 -37q0 -27 3 -37q10 -26 38 -26z" />
    <glyph glyph-name="guillemotright" unicode="&#xbb;" horiz-adv-x="586" 
d="M328 23q-3 -3 -6.5 -1.5t-3.5 5.5v138q0 10 10 19l76 76q4 4 0 8l-76 76q-10 9 -10 19v138q0 4 3.5 5.5t6.5 -1.5l236 -234q7 -7 0 -14zM67 23q-3 -3 -6.5 -1.5t-3.5 5.5v138q0 9 10 19l77 76q4 4 0 8l-77 76q-10 10 -10 19v138q0 4 3.5 5.5t6.5 -1.5l236 -234
q7 -7 0 -14z" />
    <glyph glyph-name="onequarter" unicode="&#xbc;" horiz-adv-x="908" 
d="M274 274h-102q-10 0 -10 10v270h-2l-66 -38q-4 -2 -7 0t-3 6v97q0 10 9 15l62 40q10 6 17 6h102q10 0 10 -10v-386q0 -10 -10 -10zM784 0h-93q-10 0 -10 10v36q0 6 -6 6h-166q-10 0 -10 10v85q0 10 4 18l107 231q4 10 15 10h107q11 0 7 -10l-111 -241v-2h47q6 0 6 6v57
q0 10 10 10h93q10 0 10 -10v-57q0 -6 5 -6h14q10 0 10 -10v-81q0 -10 -10 -10h-13q-6 0 -6 -6v-36q0 -10 -10 -10zM287 -12h-102q-10 0 -4 10l395 684q6 10 16 10h102q10 0 4 -10l-395 -684q-6 -10 -16 -10z" />
    <glyph glyph-name="onehalf" unicode="&#xbd;" horiz-adv-x="934" 
d="M274 274h-102q-10 0 -10 10v270h-2l-66 -38q-4 -2 -7 0t-3 6v97q0 10 9 15l62 40q10 6 17 6h102q10 0 10 -10v-386q0 -10 -10 -10zM840 0h-277q-10 0 -10 10v76q0 11 8 18l146 137q23 23 23 45q0 31 -31 31q-32 0 -35 -36q-2 -11 -11 -9l-91 13q-9 1 -9 11q2 49 42.5 83
t110.5 34q62 0 103 -33.5t41 -92.5q0 -57 -54 -107l-84 -78v-1h128q10 0 10 -10v-81q0 -10 -10 -10zM287 -12h-102q-10 0 -4 10l395 684q6 10 16 10h102q10 0 4 -10l-395 -684q-6 -10 -16 -10z" />
    <glyph glyph-name="threequarters" unicode="&#xbe;" horiz-adv-x="970" 
d="M846 0h-93q-10 0 -10 10v36q0 6 -6 6h-166q-10 0 -10 10v85q0 10 4 18l107 231q4 10 15 10h107q11 0 7 -10l-111 -241v-2h47q6 0 6 6v57q0 10 10 10h93q10 0 10 -10v-57q0 -6 5 -6h14q10 0 10 -10v-81q0 -10 -10 -10h-13q-6 0 -6 -6v-36q0 -10 -10 -10zM350 -12h-102
q-10 0 -4 10l395 684q6 10 16 10h102q10 0 4 -10l-395 -684q-6 -10 -16 -10zM237 267q-62 0 -103 26.5t-50 75.5q-2 10 8 12l90 14q9 1 13 -7q13 -25 38 -25q36 0 36 35t-43 35h-13q-10 0 -10 10v74q0 10 10 10h13q16 0 26 8.5t10 23.5q0 32 -32 32q-24 0 -34 -23
q-3 -9 -12 -7l-90 14q-10 2 -8 11q9 45 48 73t101 28q69 0 108 -31.5t39 -82.5t-45 -82v-1q52 -24 52 -94q0 -59 -41 -94t-111 -35z" />
    <glyph glyph-name="questiondown" unicode="&#xbf;" horiz-adv-x="483" 
d="M318 277q10 0 10 -10v-41q0 -49 -31 -84l-60 -71q-44 -47 -44 -80q0 -24 15.5 -40t40.5 -16q52 0 65 61q2 10 11 8l129 -18q10 -1 8 -11q-11 -82 -68.5 -131t-148.5 -49q-95 0 -155 54.5t-60 133.5q0 74 68 145l53 64q21 23 21 58v17q0 10 10 10h136zM328 477v-126
q0 -10 -10 -10h-138q-10 0 -10 10v126q0 10 10 10h138q10 0 10 -10z" />
    <glyph glyph-name="Agrave" unicode="&#xc0;" horiz-adv-x="674" 
d="M10 10l235 660q3 10 13 10h163q10 0 13 -10l230 -660q3 -10 -7 -10h-165q-10 0 -13 10l-32 105h-221l-32 -105q-3 -10 -13 -10h-164q-10 0 -7 10zM271 261h132l-63 212h-3zM400 747h-115q-11 0 -20 9l-128 123q-3 4 -1.5 7t6.5 3h142q10 0 18 -10l102 -122q3 -4 1.5 -7
t-5.5 -3z" />
    <glyph glyph-name="Aacute" unicode="&#xc1;" horiz-adv-x="674" 
d="M10 10l235 660q3 10 13 10h163q10 0 13 -10l230 -660q3 -10 -7 -10h-165q-10 0 -13 10l-32 105h-221l-32 -105q-3 -10 -13 -10h-164q-10 0 -7 10zM271 261h132l-63 212h-3zM392 747h-115q-5 0 -6 3t2 7l102 122q8 10 18 10h142q5 0 6.5 -3t-1.5 -7l-128 -123
q-9 -9 -20 -9z" />
    <glyph glyph-name="Acircumflex" unicode="&#xc2;" horiz-adv-x="674" 
d="M10 10l235 660q3 10 13 10h163q10 0 13 -10l230 -660q3 -10 -7 -10h-165q-10 0 -13 10l-32 105h-221l-32 -105q-3 -10 -13 -10h-164q-10 0 -7 10zM271 261h132l-63 212h-3zM504 741h-95q-13 0 -23 10l-48 50h-2l-49 -50q-10 -10 -23 -10h-95q-5 0 -6 3t2 7l108 137
q7 10 19 10h90q12 0 19 -10l108 -137q3 -4 1.5 -7t-6.5 -3z" />
    <glyph glyph-name="Atilde" unicode="&#xc3;" horiz-adv-x="674" 
d="M10 10l235 660q3 10 13 10h163q10 0 13 -10l230 -660q3 -10 -7 -10h-165q-10 0 -13 10l-32 105h-221l-32 -105q-3 -10 -13 -10h-164q-10 0 -7 10zM271 261h132l-63 212h-3zM405 740q-37 0 -83 23q-36 18 -60 18q-33 0 -76 -33q-4 -3 -7 -1.5t-3 5.5v81q0 12 9 22
q37 37 81 37q36 0 84 -24q38 -17 60 -17q33 0 75 32q11 7 11 -3v-81q0 -13 -10 -22q-37 -37 -81 -37z" />
    <glyph glyph-name="Adieresis" unicode="&#xc4;" horiz-adv-x="674" 
d="M10 10l235 660q3 10 13 10h163q10 0 13 -10l230 -660q3 -10 -7 -10h-165q-10 0 -13 10l-32 105h-221l-32 -105q-3 -10 -13 -10h-164q-10 0 -7 10zM271 261h132l-63 212h-3zM493 750h-107q-10 0 -10 10v110q0 10 10 10h107q10 0 10 -10v-110q0 -10 -10 -10zM287 750h-107
q-10 0 -10 10v110q0 10 10 10h107q10 0 10 -10v-110q0 -10 -10 -10z" />
    <glyph glyph-name="Aring" unicode="&#xc5;" horiz-adv-x="674" 
d="M10 10l235 660q3 10 13 10h163q10 0 13 -10l230 -660q3 -10 -7 -10h-165q-10 0 -13 10l-32 105h-221l-32 -105q-3 -10 -13 -10h-164q-10 0 -7 10zM271 261h132l-63 212h-3zM336 704q-49 0 -81.5 32.5t-32.5 81.5t32.5 81t81.5 32q50 0 82.5 -32t32.5 -81t-32.5 -81.5
t-82.5 -32.5zM336 773q19 0 31.5 13t12.5 32t-12.5 31.5t-31.5 12.5q-18 0 -30.5 -12.5t-12.5 -31.5t12.5 -32t30.5 -13z" />
    <glyph glyph-name="AE" unicode="&#xc6;" horiz-adv-x="931" 
d="M884 0h-445q-10 0 -10 10v99q0 6 -6 6h-178l-45 -105q-4 -10 -14 -10h-168q-12 0 -7 10l303 660q5 10 14 10h556q10 0 10 -10v-129q0 -10 -10 -10h-273q-6 0 -6 -6v-103q0 -6 6 -6h224q10 0 10 -10v-126q0 -10 -10 -10h-224q-6 0 -6 -6v-109q0 -6 6 -6h273q10 0 10 -10
v-129q0 -10 -10 -10zM426 531l-117 -270h114q6 0 6 6v264h-3z" />
    <glyph glyph-name="Ccedilla" unicode="&#xc7;" horiz-adv-x="574" 
d="M307 -166h-115q-10 0 -7 10l59 149q-141 25 -185 163q-20 61 -20 184t20 184q27 83 90.5 125.5t156.5 42.5q89 0 152 -40.5t92 -114.5q4 -10 -5 -14l-133 -58q-10 -4 -14 6q-30 64 -89 64q-63 0 -82 -59q-10 -30 -10 -136t10 -136q19 -59 82 -59q59 0 89 64q4 10 14 6
l133 -58q9 -4 5 -14q-48 -125 -183 -150l-44 -149q-3 -10 -16 -10z" />
    <glyph glyph-name="Egrave" unicode="&#xc8;" horiz-adv-x="557" 
d="M367 747h-115q-11 0 -20 9l-128 123q-3 4 -1.5 7t6.5 3h142q10 0 18 -10l102 -122q3 -4 2 -7t-6 -3zM55 10v660q0 10 10 10h445q10 0 10 -10v-129q0 -10 -10 -10h-273q-6 0 -6 -6v-103q0 -6 6 -6h224q10 0 10 -10v-126q0 -10 -10 -10h-224q-6 0 -6 -6v-109q0 -6 6 -6h273
q10 0 10 -10v-129q0 -10 -10 -10h-445q-10 0 -10 10z" />
    <glyph glyph-name="Eacute" unicode="&#xc9;" horiz-adv-x="557" 
d="M310 747h-115q-5 0 -6 3t2 7l102 122q8 10 18 10h142q5 0 6.5 -3t-1.5 -7l-128 -123q-9 -9 -20 -9zM55 10v660q0 10 10 10h445q10 0 10 -10v-129q0 -10 -10 -10h-273q-6 0 -6 -6v-103q0 -6 6 -6h224q10 0 10 -10v-126q0 -10 -10 -10h-224q-6 0 -6 -6v-109q0 -6 6 -6h273
q10 0 10 -10v-129q0 -10 -10 -10h-445q-10 0 -10 10z" />
    <glyph glyph-name="Ecircumflex" unicode="&#xca;" horiz-adv-x="557" 
d="M55 10v660q0 10 10 10h445q10 0 10 -10v-129q0 -10 -10 -10h-273q-6 0 -6 -6v-103q0 -6 6 -6h224q10 0 10 -10v-126q0 -10 -10 -10h-224q-6 0 -6 -6v-109q0 -6 6 -6h273q10 0 10 -10v-129q0 -10 -10 -10h-445q-10 0 -10 10zM456 741h-95q-13 0 -23 10l-48 50h-2l-49 -50
q-10 -10 -23 -10h-95q-5 0 -6 3t2 7l108 137q7 10 19 10h90q12 0 19 -10l108 -137q3 -4 1.5 -7t-6.5 -3z" />
    <glyph glyph-name="Edieresis" unicode="&#xcb;" horiz-adv-x="557" 
d="M443 750h-107q-10 0 -10 10v110q0 10 10 10h107q10 0 10 -10v-110q0 -10 -10 -10zM237 750h-107q-10 0 -10 10v110q0 10 10 10h107q10 0 10 -10v-110q0 -10 -10 -10zM55 10v660q0 10 10 10h445q10 0 10 -10v-129q0 -10 -10 -10h-273q-6 0 -6 -6v-103q0 -6 6 -6h224
q10 0 10 -10v-126q0 -10 -10 -10h-224q-6 0 -6 -6v-109q0 -6 6 -6h273q10 0 10 -10v-129q0 -10 -10 -10h-445q-10 0 -10 10z" />
    <glyph glyph-name="Igrave" unicode="&#xcc;" horiz-adv-x="286" 
d="M55 10v660q0 10 10 10h156q10 0 10 -10v-660q0 -10 -10 -10h-156q-10 0 -10 10zM209 747h-115q-11 0 -20 9l-128 123q-3 4 -1.5 7t6.5 3h142q10 0 18 -10l102 -122q3 -4 2 -7t-6 -3z" />
    <glyph glyph-name="Iacute" unicode="&#xcd;" horiz-adv-x="286" 
d="M55 10v660q0 10 10 10h156q10 0 10 -10v-660q0 -10 -10 -10h-156q-10 0 -10 10zM194 747h-115q-5 0 -6 3t2 7l102 122q8 10 18 10h142q5 0 6.5 -3t-1.5 -7l-128 -123q-9 -9 -20 -9z" />
    <glyph glyph-name="Icircumflex" unicode="&#xce;" horiz-adv-x="286" 
d="M55 10v660q0 10 10 10h156q10 0 10 -10v-660q0 -10 -10 -10h-156q-10 0 -10 10zM311 741h-95q-13 0 -23 10l-48 50h-2l-49 -50q-10 -10 -23 -10h-95q-4 0 -5.5 3t1.5 7l108 137q7 10 19 10h90q12 0 19 -10l108 -137q3 -4 1.5 -7t-6.5 -3z" />
    <glyph glyph-name="Idieresis" unicode="&#xcf;" horiz-adv-x="286" 
d="M55 10v660q0 10 10 10h156q10 0 10 -10v-660q0 -10 -10 -10h-156q-10 0 -10 10zM300 750h-107q-10 0 -10 10v110q0 10 10 10h107q10 0 10 -10v-110q0 -10 -10 -10zM94 750h-107q-10 0 -10 10v110q0 10 10 10h107q10 0 10 -10v-110q0 -10 -10 -10z" />
    <glyph glyph-name="Eth" unicode="&#xd0;" horiz-adv-x="631" 
d="M328 0h-263q-10 0 -10 10v266q0 6 -6 6h-25q-10 0 -10 10v102q0 10 10 10h25q6 0 6 6v260q0 10 10 10h263q192 0 242 -155q20 -63 20 -185t-20 -185q-50 -155 -242 -155zM290 156q47 0 73.5 15t38.5 50q10 33 10 119t-10 119q-12 35 -38.5 50t-73.5 15h-53q-6 0 -6 -6
v-108q0 -6 6 -6h70q10 0 10 -10v-102q0 -10 -10 -10h-70q-6 0 -6 -6v-114q0 -6 6 -6h53z" />
    <glyph glyph-name="Ntilde" unicode="&#xd1;" horiz-adv-x="653" 
d="M395 740q-37 0 -83 23q-36 18 -60 18q-33 0 -76 -33q-4 -3 -7 -1.5t-3 5.5v81q0 12 9 22q37 37 81 37q36 0 84 -24q38 -17 60 -17q33 0 75 32q11 7 11 -3v-81q0 -13 -10 -22q-37 -37 -81 -37zM55 10v660q0 10 10 10h147q13 0 17 -10l205 -385h4v385q0 10 10 10h140
q10 0 10 -10v-660q0 -10 -10 -10h-147q-13 0 -17 10l-203 384h-6v-384q0 -10 -10 -10h-140q-10 0 -10 10z" />
    <glyph glyph-name="Ograve" unicode="&#xd2;" horiz-adv-x="628" 
d="M385 747h-115q-11 0 -20 9l-128 123q-3 4 -1.5 7t6.5 3h142q10 0 18 -10l102 -122q3 -4 2 -7t-6 -3zM314 -12q-93 0 -161 43t-94 124q-20 65 -20 185t20 185q26 81 94 124t161 43t161 -43t94 -124q20 -61 20 -185t-20 -185q-26 -81 -94 -124t-161 -43zM314 145
q68 0 87 60q10 29 10 135t-10 135q-19 60 -87 60t-87 -60q-10 -29 -10 -135t10 -135q19 -60 87 -60z" />
    <glyph glyph-name="Oacute" unicode="&#xd3;" horiz-adv-x="628" 
d="M357 747h-115q-4 0 -5.5 3t1.5 7l102 122q8 10 18 10h142q5 0 6.5 -3t-1.5 -7l-128 -123q-9 -9 -20 -9zM314 -12q-93 0 -161 43t-94 124q-20 65 -20 185t20 185q26 81 94 124t161 43t161 -43t94 -124q20 -61 20 -185t-20 -185q-26 -81 -94 -124t-161 -43zM314 145
q68 0 87 60q10 29 10 135t-10 135q-19 60 -87 60t-87 -60q-10 -29 -10 -135t10 -135q19 -60 87 -60z" />
    <glyph glyph-name="Ocircumflex" unicode="&#xd4;" horiz-adv-x="628" 
d="M314 -12q-93 0 -161 43t-94 124q-20 65 -20 185t20 185q26 81 94 124t161 43t161 -43t94 -124q20 -61 20 -185t-20 -185q-26 -81 -94 -124t-161 -43zM314 145q68 0 87 60q10 29 10 135t-10 135q-19 60 -87 60t-87 -60q-10 -29 -10 -135t10 -135q19 -60 87 -60zM481 741
h-95q-13 0 -23 10l-48 50h-2l-49 -50q-10 -10 -23 -10h-95q-4 0 -5.5 3t1.5 7l108 137q7 10 19 10h90q12 0 19 -10l108 -137q3 -4 1.5 -7t-6.5 -3z" />
    <glyph glyph-name="Otilde" unicode="&#xd5;" horiz-adv-x="628" 
d="M382 740q-37 0 -83 23q-36 18 -60 18q-33 0 -76 -33q-4 -3 -7 -1.5t-3 5.5v81q0 12 9 22q37 37 81 37q36 0 84 -24q38 -17 60 -17q33 0 75 32q11 7 11 -3v-81q0 -13 -10 -22q-37 -37 -81 -37zM314 -12q-93 0 -161 43t-94 124q-20 65 -20 185t20 185q26 81 94 124t161 43
t161 -43t94 -124q20 -61 20 -185t-20 -185q-26 -81 -94 -124t-161 -43zM314 145q68 0 87 60q10 29 10 135t-10 135q-19 60 -87 60t-87 -60q-10 -29 -10 -135t10 -135q19 -60 87 -60z" />
    <glyph glyph-name="Odieresis" unicode="&#xd6;" horiz-adv-x="628" 
d="M470 750h-107q-10 0 -10 10v110q0 10 10 10h107q10 0 10 -10v-110q0 -10 -10 -10zM264 750h-107q-10 0 -10 10v110q0 10 10 10h107q10 0 10 -10v-110q0 -10 -10 -10zM314 -12q-93 0 -161 43t-94 124q-20 65 -20 185t20 185q26 81 94 124t161 43t161 -43t94 -124
q20 -61 20 -185t-20 -185q-26 -81 -94 -124t-161 -43zM314 145q68 0 87 60q10 29 10 135t-10 135q-19 60 -87 60t-87 -60q-10 -29 -10 -135t10 -135q19 -60 87 -60z" />
    <glyph glyph-name="multiply" unicode="&#xd7;" 
d="M497 141l-81 -81q-7 -9 -14 0l-117 117q-4 4 -8 0l-118 -117q-7 -9 -14 0l-80 80q-7 7 0 14l116 117q5 5 0 9l-116 117q-7 7 0 14l81 82q7 7 14 0l117 -118q5 -3 9 0l117 118q7 7 14 0l80 -81q9 -7 0 -14l-116 -117q-5 -5 0 -8l116 -118q9 -7 0 -14z" />
    <glyph glyph-name="Oslash" unicode="&#xd8;" horiz-adv-x="628" 
d="M129 -30h-102q-11 0 -5 10l70 109q-21 29 -33 66q-20 65 -20 185t20 185q26 81 94 124t161 43q80 0 142 -32l26 40q7 10 17 10h101q4 0 6 -3t0 -7l-70 -110q22 -32 33 -65q20 -61 20 -185t-20 -185q-26 -81 -94 -124t-161 -43q-80 0 -142 32l-26 -40q-7 -10 -17 -10z
M314 145q68 0 87 60q10 29 10 135t-10 135q-19 60 -87 60t-87 -60q-10 -29 -10 -135t10 -135q19 -60 87 -60z" />
    <glyph glyph-name="Ugrave" unicode="&#xd9;" horiz-adv-x="647" 
d="M395 747h-115q-11 0 -20 9l-128 123q-3 4 -1.5 7t6.5 3h142q10 0 18 -10l102 -122q3 -4 2 -7t-6 -3zM324 -12q-126 0 -198.5 71t-72.5 204v407q0 10 10 10h156q10 0 10 -10v-418q0 -50 26 -78.5t69 -28.5q44 0 69 28t25 79v418q0 10 10 10h156q10 0 10 -10v-407
q0 -133 -73 -204t-197 -71z" />
    <glyph glyph-name="Uacute" unicode="&#xda;" horiz-adv-x="647" 
d="M371 747h-115q-4 0 -5.5 3t1.5 7l102 122q8 10 18 10h142q5 0 6.5 -3t-1.5 -7l-128 -123q-9 -9 -20 -9zM324 -12q-126 0 -198.5 71t-72.5 204v407q0 10 10 10h156q10 0 10 -10v-418q0 -50 26 -78.5t69 -28.5q44 0 69 28t25 79v418q0 10 10 10h156q10 0 10 -10v-407
q0 -133 -73 -204t-197 -71z" />
    <glyph glyph-name="Ucircumflex" unicode="&#xdb;" horiz-adv-x="647" 
d="M324 -12q-126 0 -198.5 71t-72.5 204v407q0 10 10 10h156q10 0 10 -10v-418q0 -50 26 -78.5t69 -28.5q44 0 69 28t25 79v418q0 10 10 10h156q10 0 10 -10v-407q0 -133 -73 -204t-197 -71zM490 741h-95q-13 0 -23 10l-48 50h-2l-49 -50q-10 -10 -23 -10h-95q-5 0 -6 3t2 7
l108 137q7 10 19 10h90q12 0 19 -10l108 -137q3 -4 1.5 -7t-6.5 -3z" />
    <glyph glyph-name="Udieresis" unicode="&#xdc;" horiz-adv-x="647" 
d="M480 750h-107q-10 0 -10 10v110q0 10 10 10h107q10 0 10 -10v-110q0 -10 -10 -10zM274 750h-107q-10 0 -10 10v110q0 10 10 10h107q10 0 10 -10v-110q0 -10 -10 -10zM324 -12q-126 0 -198.5 71t-72.5 204v407q0 10 10 10h156q10 0 10 -10v-418q0 -50 26 -78.5t69 -28.5
q44 0 69 28t25 79v418q0 10 10 10h156q10 0 10 -10v-407q0 -133 -73 -204t-197 -71z" />
    <glyph glyph-name="Yacute" unicode="&#xdd;" horiz-adv-x="602" 
d="M379 0h-156q-10 0 -10 10v253l-206 406q-4 11 8 11h157q10 0 16 -10l114 -232h3l112 232q4 10 16 10h154q12 0 8 -11l-206 -406v-253q0 -10 -10 -10zM352 747h-115q-5 0 -6 3t2 7l102 122q8 10 18 10h142q5 0 6.5 -3t-1.5 -7l-128 -123q-9 -9 -20 -9z" />
    <glyph glyph-name="Thorn" unicode="&#xde;" horiz-adv-x="612" 
d="M221 0h-156q-10 0 -10 10v660q0 10 10 10h156q10 0 10 -10v-87q0 -6 6 -6h100q121 0 186.5 -62t65.5 -164q0 -101 -66 -164t-186 -63h-100q-6 0 -6 -6v-108q0 -10 -10 -10zM327 273q41 0 63.5 21t22.5 57t-22.5 56.5t-63.5 20.5h-90q-6 0 -6 -6v-143q0 -6 6 -6h90z" />
    <glyph glyph-name="germandbls" unicode="&#xdf;" horiz-adv-x="579" 
d="M328 -5h-40q-10 0 -10 10v110q0 10 10 10h24q50 0 62 39q5 15 5 64t-5 66q-14 41 -67 41h-17q-10 0 -10 10v108q0 10 10 10h25q53 0 53 48q0 47 -70 47q-42 0 -60.5 -18.5t-18.5 -57.5v-472q0 -10 -10 -10h-146q-10 0 -10 10v470q0 105 58.5 158.5t185.5 53.5
q112 0 173.5 -46t61.5 -125t-57 -117v-2q42 -22 59 -71q10 -31 10 -107q0 -86 -12 -124q-18 -56 -67.5 -80.5t-136.5 -24.5z" />
    <glyph glyph-name="agrave" unicode="&#xe0;" horiz-adv-x="532" 
d="M472 0h-138q-10 0 -10 10v28h-1q-43 -50 -131 -50q-68 0 -113 38t-45 112q0 79 56 119.5t151 40.5h77q6 0 6 6v13q0 28 -19.5 39.5t-74.5 11.5q-65 0 -105 -28q-9 -5 -13 3l-52 92q-4 10 3 16q70 48 189 48q125 0 177.5 -43t52.5 -139v-307q0 -10 -10 -10zM248 108
q76 0 76 52v30q0 6 -6 6h-59q-68 0 -68 -46q0 -42 57 -42zM360 546h-116q-10 0 -17 10l-103 136q-3 4 -1.5 7t6.5 3h139q11 0 17 -10l80 -136q5 -10 -5 -10z" />
    <glyph glyph-name="aacute" unicode="&#xe1;" horiz-adv-x="532" 
d="M472 0h-138q-10 0 -10 10v28h-1q-43 -50 -131 -50q-68 0 -113 38t-45 112q0 79 56 119.5t151 40.5h77q6 0 6 6v13q0 28 -19.5 39.5t-74.5 11.5q-65 0 -105 -28q-9 -5 -13 3l-52 92q-4 10 3 16q70 48 189 48q125 0 177.5 -43t52.5 -139v-307q0 -10 -10 -10zM248 108
q76 0 76 52v30q0 6 -6 6h-59q-68 0 -68 -46q0 -42 57 -42zM315 546h-116q-10 0 -5 10l80 136q6 10 17 10h139q5 0 6.5 -3t-1.5 -7l-103 -136q-8 -10 -17 -10z" />
    <glyph glyph-name="acircumflex" unicode="&#xe2;" horiz-adv-x="532" 
d="M472 0h-138q-10 0 -10 10v28h-1q-43 -50 -131 -50q-68 0 -113 38t-45 112q0 79 56 119.5t151 40.5h77q6 0 6 6v13q0 28 -19.5 39.5t-74.5 11.5q-65 0 -105 -28q-9 -5 -13 3l-52 92q-4 10 3 16q70 48 189 48q125 0 177.5 -43t52.5 -139v-307q0 -10 -10 -10zM248 108
q76 0 76 52v30q0 6 -6 6h-59q-68 0 -68 -46q0 -42 57 -42zM433 544h-95q-13 0 -23 10l-49 50h-2l-48 -50q-10 -10 -23 -10h-95q-5 0 -6.5 3t1.5 7l109 137q7 10 18 10h91q11 0 18 -10l109 -137q3 -4 1.5 -7t-6.5 -3z" />
    <glyph glyph-name="atilde" unicode="&#xe3;" horiz-adv-x="532" 
d="M472 0h-138q-10 0 -10 10v28h-1q-43 -50 -131 -50q-68 0 -113 38t-45 112q0 79 56 119.5t151 40.5h77q6 0 6 6v13q0 28 -19.5 39.5t-74.5 11.5q-65 0 -105 -28q-9 -5 -13 3l-52 92q-4 10 3 16q70 48 189 48q125 0 177.5 -43t52.5 -139v-307q0 -10 -10 -10zM248 108
q76 0 76 52v30q0 6 -6 6h-59q-68 0 -68 -46q0 -42 57 -42zM335 545q-37 0 -83 23q-36 18 -60 18q-32 0 -76 -32q-4 -3 -7 -2t-3 5v81q0 13 9 22q37 37 81 37q38 0 84 -23q36 -18 60 -18q34 0 75 33q11 7 11 -4v-81q0 -13 -10 -22q-37 -37 -81 -37z" />
    <glyph glyph-name="adieresis" unicode="&#xe4;" horiz-adv-x="532" 
d="M472 0h-138q-10 0 -10 10v28h-1q-43 -50 -131 -50q-68 0 -113 38t-45 112q0 79 56 119.5t151 40.5h77q6 0 6 6v13q0 28 -19.5 39.5t-74.5 11.5q-65 0 -105 -28q-9 -5 -13 3l-52 92q-4 10 3 16q70 48 189 48q125 0 177.5 -43t52.5 -139v-307q0 -10 -10 -10zM248 108
q76 0 76 52v30q0 6 -6 6h-59q-68 0 -68 -46q0 -42 57 -42zM421 550h-108q-10 0 -10 10v110q0 10 10 10h108q10 0 10 -10v-110q0 -10 -10 -10zM216 550h-108q-10 0 -10 10v110q0 10 10 10h108q10 0 10 -10v-110q0 -10 -10 -10z" />
    <glyph glyph-name="aring" unicode="&#xe5;" horiz-adv-x="532" 
d="M472 0h-138q-10 0 -10 10v28h-1q-43 -50 -131 -50q-68 0 -113 38t-45 112q0 79 56 119.5t151 40.5h77q6 0 6 6v13q0 28 -19.5 39.5t-74.5 11.5q-65 0 -105 -28q-9 -5 -13 3l-52 92q-4 10 3 16q70 48 189 48q125 0 177.5 -43t52.5 -139v-307q0 -10 -10 -10zM248 108
q76 0 76 52v30q0 6 -6 6h-59q-68 0 -68 -46q0 -42 57 -42zM267 518q-49 0 -81.5 32.5t-32.5 81.5t32.5 81.5t81.5 32.5q50 0 82.5 -32.5t32.5 -81.5t-32.5 -81.5t-82.5 -32.5zM267 587q19 0 31.5 13t12.5 32t-12.5 32t-31.5 13q-18 0 -30.5 -13t-12.5 -32t12.5 -32t30.5 -13
z" />
    <glyph glyph-name="ae" unicode="&#xe6;" horiz-adv-x="819" 
d="M562 -12q-51 0 -95 18.5t-70 50.5h-1q-53 -69 -183 -69q-85 0 -132 38t-47 112q0 79 56 119.5t151 40.5h77q6 0 6 6v13q0 28 -19.5 39.5t-74.5 11.5q-65 0 -105 -28q-9 -5 -13 3l-52 92q-4 10 3 16q70 48 189 48q103 0 164 -43h2q54 43 134 43q86 0 142 -36.5t78 -104.5
q15 -45 15 -152q0 -10 -10 -10h-289q-6 0 -6 -6q0 -12 4 -20q17 -53 94 -53q59 0 109 39q8 8 14 0l72 -73q7 -7 -1 -15q-83 -80 -212 -80zM620 298q6 0 6 6q0 17 -5 30q-13 44 -67 44t-68 -44q-4 -11 -4 -30q0 -6 6 -6h132zM248 108q76 0 76 52v30q0 6 -6 6h-59
q-68 0 -68 -46q0 -42 57 -42z" />
    <glyph glyph-name="ccedilla" unicode="&#xe7;" horiz-adv-x="493" 
d="M258 -166h-115q-10 0 -7 10l60 151q-59 17 -96 49t-54 87q-14 39 -14 112q0 74 14 113q22 69 79.5 106t137.5 37q71 0 124.5 -31.5t77.5 -80.5q4 -9 -4 -14l-112 -58q-11 -7 -15 3q-24 43 -66 43q-44 0 -59 -42q-7 -21 -7 -76q0 -54 7 -75q15 -42 59 -42q42 0 66 43
q4 10 15 3l112 -58q8 -5 4 -14q-42 -84 -147 -106l-44 -150q-3 -10 -16 -10z" />
    <glyph glyph-name="egrave" unicode="&#xe8;" horiz-adv-x="533" 
d="M275 -12q-88 0 -146.5 37.5t-80.5 105.5q-16 46 -16 112t15 113q23 68 79.5 105.5t138.5 37.5q86 0 142.5 -36.5t77.5 -104.5q16 -48 16 -152q0 -10 -11 -10h-289q-6 0 -6 -6q2 -14 4 -20q17 -53 94 -53q61 0 109 39q8 7 15 0l71 -73q9 -7 -1 -15q-83 -80 -212 -80z
M201 298h132q6 0 6 6q0 19 -4 30q-14 44 -68 44t-68 -44q-4 -16 -4 -30q0 -6 6 -6zM338 546h-116q-10 0 -17 10l-103 136q-3 4 -1.5 7t6.5 3h139q11 0 17 -10l80 -136q5 -10 -5 -10z" />
    <glyph glyph-name="eacute" unicode="&#xe9;" horiz-adv-x="533" 
d="M309 546h-116q-10 0 -5 10l80 136q6 10 17 10h139q5 0 6.5 -3t-1.5 -7l-103 -136q-8 -10 -17 -10zM275 -12q-88 0 -146.5 37.5t-80.5 105.5q-16 46 -16 112t15 113q23 68 79.5 105.5t138.5 37.5q86 0 142.5 -36.5t77.5 -104.5q16 -48 16 -152q0 -10 -11 -10h-289
q-6 0 -6 -6q2 -14 4 -20q17 -53 94 -53q61 0 109 39q8 7 15 0l71 -73q9 -7 -1 -15q-83 -80 -212 -80zM201 298h132q6 0 6 6q0 19 -4 30q-14 44 -68 44t-68 -44q-4 -16 -4 -30q0 -6 6 -6z" />
    <glyph glyph-name="ecircumflex" unicode="&#xea;" horiz-adv-x="533" 
d="M433 544h-95q-13 0 -23 10l-49 50h-2l-48 -50q-10 -10 -23 -10h-95q-5 0 -6.5 3t1.5 7l109 137q7 10 18 10h91q11 0 18 -10l109 -137q3 -4 1.5 -7t-6.5 -3zM275 -12q-88 0 -146.5 37.5t-80.5 105.5q-16 46 -16 112t15 113q23 68 79.5 105.5t138.5 37.5q86 0 142.5 -36.5
t77.5 -104.5q16 -48 16 -152q0 -10 -11 -10h-289q-6 0 -6 -6q2 -14 4 -20q17 -53 94 -53q61 0 109 39q8 7 15 0l71 -73q9 -7 -1 -15q-83 -80 -212 -80zM201 298h132q6 0 6 6q0 19 -4 30q-14 44 -68 44t-68 -44q-4 -16 -4 -30q0 -6 6 -6z" />
    <glyph glyph-name="edieresis" unicode="&#xeb;" horiz-adv-x="533" 
d="M422 550h-108q-10 0 -10 10v110q0 10 10 10h108q10 0 10 -10v-110q0 -10 -10 -10zM217 550h-108q-10 0 -10 10v110q0 10 10 10h108q10 0 10 -10v-110q0 -10 -10 -10zM275 -12q-88 0 -146.5 37.5t-80.5 105.5q-16 46 -16 112t15 113q23 68 79.5 105.5t138.5 37.5
q86 0 142.5 -36.5t77.5 -104.5q16 -48 16 -152q0 -10 -11 -10h-289q-6 0 -6 -6q2 -14 4 -20q17 -53 94 -53q61 0 109 39q8 7 15 0l71 -73q9 -7 -1 -15q-83 -80 -212 -80zM201 298h132q6 0 6 6q0 19 -4 30q-14 44 -68 44t-68 -44q-4 -16 -4 -30q0 -6 6 -6z" />
    <glyph glyph-name="igrave" unicode="&#xec;" horiz-adv-x="274" 
d="M211 0h-148q-10 0 -10 10v467q0 10 10 10h148q10 0 10 -10v-467q0 -10 -10 -10zM199 546h-116q-9 0 -17 10l-103 136q-3 4 -1.5 7t6.5 3h139q11 0 17 -10l80 -136q5 -10 -5 -10z" />
    <glyph glyph-name="iacute" unicode="&#xed;" horiz-adv-x="274" 
d="M193 546h-116q-10 0 -5 10l80 136q6 10 17 10h139q5 0 6.5 -3t-1.5 -7l-103 -136q-8 -10 -17 -10zM211 0h-148q-10 0 -10 10v467q0 10 10 10h148q10 0 10 -10v-467q0 -10 -10 -10z" />
    <glyph glyph-name="icircumflex" unicode="&#xee;" horiz-adv-x="274" 
d="M305 544h-95q-13 0 -23 10l-49 50h-2l-48 -50q-10 -10 -23 -10h-95q-5 0 -6.5 3t1.5 7l109 137q7 10 18 10h91q11 0 18 -10l109 -137q3 -4 1.5 -7t-6.5 -3zM211 0h-148q-10 0 -10 10v467q0 10 10 10h148q10 0 10 -10v-467q0 -10 -10 -10z" />
    <glyph glyph-name="idieresis" unicode="&#xef;" horiz-adv-x="274" 
d="M294 550h-108q-10 0 -10 10v110q0 10 10 10h108q10 0 10 -10v-110q0 -10 -10 -10zM89 550h-108q-10 0 -10 10v110q0 10 10 10h108q10 0 10 -10v-110q0 -10 -10 -10zM211 0h-148q-10 0 -10 10v467q0 10 10 10h148q10 0 10 -10v-467q0 -10 -10 -10z" />
    <glyph glyph-name="eth" unicode="&#xf0;" horiz-adv-x="538" 
d="M423 566l-55 -17l23 -31q63 -87 89.5 -150t26.5 -137q0 -53 -14 -98q-23 -68 -81.5 -106.5t-142.5 -38.5q-85 0 -143 37t-79 101q-15 48 -15 93q0 52 14 97q19 58 64 92t108 34q39 0 67 -18h2l-61 83l-98 -29q-10 -2 -13 7l-21 73q-3 10 7 13l64 19l-58 80q-3 4 -1.5 7
t6.5 3h148q12 0 19 -9l28 -39l88 26q10 2 13 -7l22 -72q2 -10 -7 -13zM269 125q48 0 62 42q6 21 6 52t-6 52q-14 42 -61 42q-48 0 -62 -42q-7 -24 -7 -52q0 -27 7 -52q14 -42 61 -42z" />
    <glyph glyph-name="ntilde" unicode="&#xf1;" horiz-adv-x="558" 
d="M498 0h-148q-10 0 -10 10v278q0 71 -59 71q-28 0 -44 -19t-16 -52v-278q0 -10 -10 -10h-148q-10 0 -10 10v467q0 10 10 10h148q10 0 10 -10v-35h1q39 57 125 57q80 0 120.5 -49t40.5 -133v-307q0 -10 -10 -10zM347 545q-37 0 -83 23q-36 18 -60 18q-32 0 -76 -32
q-4 -3 -7 -2t-3 5v81q0 13 9 22q37 37 81 37q38 0 84 -23q36 -18 60 -18q34 0 75 33q11 7 11 -4v-81q0 -13 -10 -22q-37 -37 -81 -37z" />
    <glyph glyph-name="ograve" unicode="&#xf2;" horiz-adv-x="538" 
d="M269 -12q-82 0 -141 36.5t-81 104.5q-15 49 -15 114q0 66 15 115q22 68 81 104.5t141 36.5t140.5 -36t81.5 -105q15 -49 15 -115q0 -65 -15 -114q-23 -69 -81.5 -105t-140.5 -36zM269 126q45 0 60 41q7 25 7 76q0 52 -7 77q-15 41 -60 41t-60 -41q-7 -25 -7 -77
q0 -51 7 -76q15 -41 60 -41zM338 546h-116q-10 0 -17 10l-103 136q-3 4 -1.5 7t6.5 3h139q11 0 17 -10l80 -136q5 -10 -5 -10z" />
    <glyph glyph-name="oacute" unicode="&#xf3;" horiz-adv-x="538" 
d="M317 546h-116q-10 0 -5 10l80 136q6 10 17 10h139q5 0 6.5 -3t-1.5 -7l-103 -136q-8 -10 -17 -10zM269 -12q-82 0 -141 36.5t-81 104.5q-15 49 -15 114q0 66 15 115q22 68 81 104.5t141 36.5t140.5 -36t81.5 -105q15 -49 15 -115q0 -65 -15 -114q-23 -69 -81.5 -105
t-140.5 -36zM269 126q45 0 60 41q7 25 7 76q0 52 -7 77q-15 41 -60 41t-60 -41q-7 -25 -7 -77q0 -51 7 -76q15 -41 60 -41z" />
    <glyph glyph-name="ocircumflex" unicode="&#xf4;" horiz-adv-x="538" 
d="M436 544h-95q-13 0 -23 10l-49 50h-2l-48 -50q-10 -10 -23 -10h-95q-5 0 -6.5 3t1.5 7l109 137q7 10 18 10h91q11 0 18 -10l109 -137q3 -4 1.5 -7t-6.5 -3zM269 -12q-82 0 -141 36.5t-81 104.5q-15 49 -15 114q0 66 15 115q22 68 81 104.5t141 36.5t140.5 -36t81.5 -105
q15 -49 15 -115q0 -65 -15 -114q-23 -69 -81.5 -105t-140.5 -36zM269 126q45 0 60 41q7 25 7 76q0 52 -7 77q-15 41 -60 41t-60 -41q-7 -25 -7 -77q0 -51 7 -76q15 -41 60 -41z" />
    <glyph glyph-name="otilde" unicode="&#xf5;" horiz-adv-x="538" 
d="M269 -12q-82 0 -141 36.5t-81 104.5q-15 49 -15 114q0 66 15 115q22 68 81 104.5t141 36.5t140.5 -36t81.5 -105q15 -49 15 -115q0 -65 -15 -114q-23 -69 -81.5 -105t-140.5 -36zM269 126q45 0 60 41q7 25 7 76q0 52 -7 77q-15 41 -60 41t-60 -41q-7 -25 -7 -77
q0 -51 7 -76q15 -41 60 -41zM337 545q-37 0 -83 23q-36 18 -60 18q-32 0 -76 -32q-4 -3 -7 -2t-3 5v81q0 13 9 22q37 37 81 37q38 0 84 -23q36 -18 60 -18q34 0 75 33q11 7 11 -4v-81q0 -13 -10 -22q-37 -37 -81 -37z" />
    <glyph glyph-name="odieresis" unicode="&#xf6;" horiz-adv-x="538" 
d="M424 550h-108q-10 0 -10 10v110q0 10 10 10h108q10 0 10 -10v-110q0 -10 -10 -10zM219 550h-108q-10 0 -10 10v110q0 10 10 10h108q10 0 10 -10v-110q0 -10 -10 -10zM269 -12q-82 0 -141 36.5t-81 104.5q-15 49 -15 114q0 66 15 115q22 68 81 104.5t141 36.5t140.5 -36
t81.5 -105q15 -49 15 -115q0 -65 -15 -114q-23 -69 -81.5 -105t-140.5 -36zM269 126q45 0 60 41q7 25 7 76q0 52 -7 77q-15 41 -60 41t-60 -41q-7 -25 -7 -77q0 -51 7 -76q15 -41 60 -41z" />
    <glyph glyph-name="divide" unicode="&#xf7;" 
d="M281 389q-35 0 -60 24.5t-25 59.5q0 36 25 60.5t60 24.5q36 0 60.5 -24.5t24.5 -60.5q0 -35 -24.5 -59.5t-60.5 -24.5zM505 206h-448q-10 0 -10 10v120q0 10 10 10h448q10 0 10 -10v-120q0 -10 -10 -10zM281 -6q-35 0 -60 24.5t-25 60.5q0 35 25 59.5t60 24.5
q36 0 60.5 -24.5t24.5 -59.5q0 -36 -24.5 -60.5t-60.5 -24.5z" />
    <glyph glyph-name="oslash" unicode="&#xf8;" horiz-adv-x="538" 
d="M269 -12q-67 0 -118 24l-24 -32q-7 -10 -19 -10h-82q-4 0 -5.5 3t1.5 7l62 82q-26 31 -37 67q-15 49 -15 114q0 66 15 115q22 68 81 104.5t141 36.5q67 0 118 -24l24 32q7 10 19 10h81q11 0 5 -10l-62 -83q22 -25 37 -66q15 -49 15 -115q0 -65 -15 -114
q-23 -69 -81.5 -105t-140.5 -36zM269 126q45 0 60 41q7 25 7 76q0 52 -7 77q-15 41 -60 41t-60 -41q-7 -25 -7 -77q0 -51 7 -76q15 -41 60 -41z" />
    <glyph glyph-name="ugrave" unicode="&#xf9;" horiz-adv-x="555" 
d="M492 0h-148q-10 0 -10 10v35h-1q-41 -57 -124 -57q-80 0 -120 49t-40 133v307q0 10 10 10h148q10 0 10 -10v-278q0 -33 15 -52t44 -19q58 0 58 71v278q0 10 10 10h148q10 0 10 -10v-467q0 -10 -10 -10zM347 546h-116q-9 0 -17 10l-103 136q-3 4 -1.5 7t6.5 3h139
q11 0 17 -10l80 -136q5 -10 -5 -10z" />
    <glyph glyph-name="uacute" unicode="&#xfa;" horiz-adv-x="555" 
d="M324 546h-116q-10 0 -5 10l80 136q6 10 17 10h139q5 0 6.5 -3t-1.5 -7l-103 -136q-7 -10 -17 -10zM492 0h-148q-10 0 -10 10v35h-1q-41 -57 -124 -57q-80 0 -120 49t-40 133v307q0 10 10 10h148q10 0 10 -10v-278q0 -33 15 -52t44 -19q58 0 58 71v278q0 10 10 10h148
q10 0 10 -10v-467q0 -10 -10 -10z" />
    <glyph glyph-name="ucircumflex" unicode="&#xfb;" horiz-adv-x="555" 
d="M445 544h-95q-13 0 -23 10l-49 50h-2l-48 -50q-10 -10 -23 -10h-95q-5 0 -6.5 3t1.5 7l109 137q7 10 18 10h91q11 0 18 -10l109 -137q3 -4 1.5 -7t-6.5 -3zM492 0h-148q-10 0 -10 10v35h-1q-41 -57 -124 -57q-80 0 -120 49t-40 133v307q0 10 10 10h148q10 0 10 -10v-278
q0 -33 15 -52t44 -19q58 0 58 71v278q0 10 10 10h148q10 0 10 -10v-467q0 -10 -10 -10z" />
    <glyph glyph-name="udieresis" unicode="&#xfc;" horiz-adv-x="555" 
d="M433 550h-108q-10 0 -10 10v110q0 10 10 10h108q10 0 10 -10v-110q0 -10 -10 -10zM228 550h-108q-10 0 -10 10v110q0 10 10 10h108q10 0 10 -10v-110q0 -10 -10 -10zM492 0h-148q-10 0 -10 10v35h-1q-41 -57 -124 -57q-80 0 -120 49t-40 133v307q0 10 10 10h148
q10 0 10 -10v-278q0 -33 15 -52t44 -19q58 0 58 71v278q0 10 10 10h148q10 0 10 -10v-467q0 -10 -10 -10z" />
    <glyph glyph-name="yacute" unicode="&#xfd;" horiz-adv-x="531" 
d="M133 -180h-37q-10 0 -10 10v118q0 10 10 10h25q47 0 60 41l11 31l-183 447q-4 10 7 10h157q9 0 12 -10l84 -244h2l78 244q3 10 13 10h153q11 0 7 -10l-211 -532q-28 -72 -67 -98.5t-111 -26.5zM318 546h-116q-10 0 -5 10l80 136q6 10 17 10h139q5 0 6.5 -3t-1.5 -7
l-103 -136q-7 -10 -17 -10z" />
    <glyph glyph-name="thorn" unicode="&#xfe;" horiz-adv-x="557" 
d="M211 -180h-148q-10 0 -10 10v840q0 10 10 10h148q10 0 10 -10v-229h1q38 58 125 58q123 0 161 -117q17 -55 17 -139q0 -83 -17 -138q-38 -117 -161 -117q-87 0 -125 58h-1v-216q0 -10 -10 -10zM288 126q45 0 60 41q7 22 7 76q0 55 -7 77q-15 41 -60 41q-46 0 -59 -41
q-8 -21 -8 -77q0 -55 8 -76q13 -41 59 -41z" />
    <glyph glyph-name="ydieresis" unicode="&#xff;" horiz-adv-x="531" 
d="M133 -180h-37q-10 0 -10 10v118q0 10 10 10h25q47 0 60 41l11 31l-183 447q-4 10 7 10h157q9 0 12 -10l84 -244h2l78 244q3 10 13 10h153q11 0 7 -10l-211 -532q-28 -72 -67 -98.5t-111 -26.5zM421 550h-108q-10 0 -10 10v110q0 10 10 10h108q10 0 10 -10v-110
q0 -10 -10 -10zM216 550h-108q-10 0 -10 10v110q0 10 10 10h108q10 0 10 -10v-110q0 -10 -10 -10z" />
    <glyph glyph-name="Amacron" unicode="&#x100;" horiz-adv-x="674" 
d="M10 10l235 660q3 10 13 10h163q10 0 13 -10l230 -660q3 -10 -7 -10h-165q-10 0 -13 10l-32 105h-221l-32 -105q-3 -10 -13 -10h-164q-10 0 -7 10zM271 261h132l-63 212h-3zM487 761h-301q-10 0 -10 10v90q0 10 10 10h301q10 0 10 -10v-90q0 -10 -10 -10z" />
    <glyph glyph-name="amacron" unicode="&#x101;" horiz-adv-x="532" 
d="M472 0h-138q-10 0 -10 10v28h-1q-43 -50 -131 -50q-68 0 -113 38t-45 112q0 79 56 119.5t151 40.5h77q6 0 6 6v13q0 28 -19.5 39.5t-74.5 11.5q-65 0 -105 -28q-9 -5 -13 3l-52 92q-4 10 3 16q70 48 189 48q125 0 177.5 -43t52.5 -139v-307q0 -10 -10 -10zM248 108
q76 0 76 52v30q0 6 -6 6h-59q-68 0 -68 -46q0 -42 57 -42zM416 562h-301q-10 0 -10 10v91q0 10 10 10h301q10 0 10 -10v-91q0 -10 -10 -10z" />
    <glyph glyph-name="Abreve" unicode="&#x102;" horiz-adv-x="674" 
d="M10 10l235 660q3 10 13 10h163q10 0 13 -10l230 -660q3 -10 -7 -10h-165q-10 0 -13 10l-32 105h-221l-32 -105q-3 -10 -13 -10h-164q-10 0 -7 10zM271 261h132l-63 212h-3zM336 734q-68 0 -113 40.5t-47 100.5q0 10 12 10h65q10 0 14 -10q18 -40 69 -40q52 0 70 40
q4 10 14 10h65q12 0 12 -10q-2 -60 -47 -100.5t-114 -40.5z" />
    <glyph glyph-name="abreve" unicode="&#x103;" horiz-adv-x="532" 
d="M472 0h-138q-10 0 -10 10v28h-1q-43 -50 -131 -50q-68 0 -113 38t-45 112q0 79 56 119.5t151 40.5h77q6 0 6 6v13q0 28 -19.5 39.5t-74.5 11.5q-65 0 -105 -28q-9 -5 -13 3l-52 92q-4 10 3 16q70 48 189 48q125 0 177.5 -43t52.5 -139v-307q0 -10 -10 -10zM248 108
q76 0 76 52v30q0 6 -6 6h-59q-68 0 -68 -46q0 -42 57 -42zM265 538q-68 0 -113 40.5t-47 100.5q0 11 12 11h65q10 0 14 -11q18 -40 69 -40q52 0 70 40q4 11 14 11h65q12 0 12 -11q-2 -60 -47.5 -100.5t-113.5 -40.5z" />
    <glyph glyph-name="Aogonek" unicode="&#x104;" horiz-adv-x="674" 
d="M555 -192q-51 0 -80.5 26.5t-29.5 70.5q0 55 54 95h-11q-6 1 -9 10l-32 105h-220l-33 -105q-3 -10 -10 -10h-165q-12 0 -9 10l235 660q3 10 11 10h166q9 0 12 -10l230 -660q2 -8 -9 -11q-89 -36 -89 -65q0 -16 17 -16q9 0 25 8q8 5 13 -3l38 -71q5 -8 -4 -13
q-47 -31 -100 -31zM337 473l-67 -212h134l-64 212h-3z" />
    <glyph glyph-name="aogonek" unicode="&#x105;" horiz-adv-x="532" 
d="M324 10v28h-1q-43 -50 -131 -50q-68 0 -113 38t-45 112q0 79 56 119.5t151 40.5h77q6 0 6 6v13q0 28 -19.5 39.5t-74.5 11.5q-65 0 -105 -28q-9 -5 -13 3l-52 92q-4 10 3 16q70 48 189 48q125 0 177.5 -43t52.5 -139v-307q0 -6 -7 -10q-90 -38 -90 -66q0 -16 17 -16
q10 0 24 8q9 4 13 -3l38 -71q5 -8 -4 -13q-45 -31 -99 -31q-51 0 -80.5 26.5t-29.5 70.5q0 59 66 98q-6 0 -6 7zM248 108q76 0 76 52v30q0 6 -6 6h-59q-68 0 -68 -46q0 -42 57 -42z" />
    <glyph glyph-name="Cacute" unicode="&#x106;" horiz-adv-x="574" 
d="M59 156q-20 61 -20 184t20 184q27 83 90.5 125.5t156.5 42.5q89 0 152 -40.5t92 -114.5q4 -10 -5 -14l-133 -58q-10 -4 -14 6q-30 64 -89 64q-63 0 -82 -59q-10 -30 -10 -136t10 -136q19 -59 82 -59q59 0 89 64q4 10 14 6l133 -58q9 -4 5 -14q-29 -74 -92 -114.5
t-152 -40.5q-93 0 -156.5 42.5t-90.5 125.5zM340 747h-115q-5 0 -6 3t2 7l102 122q8 10 18 10h142q5 0 6.5 -3t-1.5 -7l-128 -123q-9 -9 -20 -9z" />
    <glyph glyph-name="cacute" unicode="&#x107;" horiz-adv-x="493" 
d="M298 546h-116q-10 0 -5 10l80 136q6 10 17 10h139q5 0 6.5 -3t-1.5 -7l-103 -136q-7 -10 -17 -10zM263 -12q-80 0 -137.5 37t-79.5 106q-14 39 -14 112q0 74 14 113q22 69 79.5 106t137.5 37q71 0 124.5 -31.5t77.5 -80.5q4 -9 -4 -14l-112 -58q-11 -7 -15 3
q-24 43 -66 43q-44 0 -59 -42q-7 -21 -7 -76q0 -54 7 -75q15 -42 59 -42q42 0 66 43q4 10 15 3l112 -58q8 -5 4 -14q-24 -49 -77.5 -80.5t-124.5 -31.5z" />
    <glyph glyph-name="Ccircumflex" unicode="&#x108;" horiz-adv-x="574" 
d="M59 156q-20 61 -20 184t20 184q27 83 90.5 125.5t156.5 42.5q89 0 152 -40.5t92 -114.5q4 -10 -5 -14l-133 -58q-10 -4 -14 6q-30 64 -89 64q-63 0 -82 -59q-10 -30 -10 -136t10 -136q19 -59 82 -59q59 0 89 64q4 10 14 6l133 -58q9 -4 5 -14q-29 -74 -92 -114.5
t-152 -40.5q-93 0 -156.5 42.5t-90.5 125.5zM471 741h-95q-13 0 -23 10l-48 50h-2l-49 -50q-10 -10 -23 -10h-95q-4 0 -5.5 3t1.5 7l108 137q7 10 19 10h90q12 0 19 -10l108 -137q3 -4 1.5 -7t-6.5 -3z" />
    <glyph glyph-name="ccircumflex" unicode="&#x109;" horiz-adv-x="493" 
d="M430 544h-95q-13 0 -23 10l-49 50h-2l-48 -50q-10 -10 -23 -10h-95q-5 0 -6.5 3t1.5 7l109 137q7 10 18 10h91q11 0 18 -10l109 -137q3 -4 1.5 -7t-6.5 -3zM263 -12q-80 0 -137.5 37t-79.5 106q-14 39 -14 112q0 74 14 113q22 69 79.5 106t137.5 37q71 0 124.5 -31.5
t77.5 -80.5q4 -9 -4 -14l-112 -58q-11 -7 -15 3q-24 43 -66 43q-44 0 -59 -42q-7 -21 -7 -76q0 -54 7 -75q15 -42 59 -42q42 0 66 43q4 10 15 3l112 -58q8 -5 4 -14q-24 -49 -77.5 -80.5t-124.5 -31.5z" />
    <glyph glyph-name="Cdotaccent" unicode="&#x10a;" horiz-adv-x="574" 
d="M370 750h-138q-10 0 -10 10v110q0 10 10 10h138q10 0 10 -10v-110q0 -10 -10 -10zM59 156q-20 61 -20 184t20 184q27 83 90.5 125.5t156.5 42.5q89 0 152 -40.5t92 -114.5q4 -10 -5 -14l-133 -58q-10 -4 -14 6q-30 64 -89 64q-63 0 -82 -59q-10 -30 -10 -136t10 -136
q19 -59 82 -59q59 0 89 64q4 10 14 6l133 -58q9 -4 5 -14q-29 -74 -92 -114.5t-152 -40.5q-93 0 -156.5 42.5t-90.5 125.5z" />
    <glyph glyph-name="cdotaccent" unicode="&#x10b;" horiz-adv-x="493" 
d="M263 -12q-80 0 -137.5 37t-79.5 106q-14 39 -14 112q0 74 14 113q22 69 79.5 106t137.5 37q71 0 124.5 -31.5t77.5 -80.5q4 -9 -4 -14l-112 -58q-11 -7 -15 3q-24 43 -66 43q-44 0 -59 -42q-7 -21 -7 -76q0 -54 7 -75q15 -42 59 -42q42 0 66 43q4 10 15 3l112 -58
q8 -5 4 -14q-24 -49 -77.5 -80.5t-124.5 -31.5zM329 550h-138q-10 0 -10 10v110q0 10 10 10h138q10 0 10 -10v-110q0 -10 -10 -10z" />
    <glyph glyph-name="Ccaron" unicode="&#x10c;" horiz-adv-x="574" 
d="M59 156q-20 61 -20 184t20 184q27 83 90.5 125.5t156.5 42.5q89 0 152 -40.5t92 -114.5q4 -10 -5 -14l-133 -58q-10 -4 -14 6q-30 64 -89 64q-63 0 -82 -59q-10 -30 -10 -136t10 -136q19 -59 82 -59q59 0 89 64q4 10 14 6l133 -58q9 -4 5 -14q-29 -74 -92 -114.5
t-152 -40.5q-93 0 -156.5 42.5t-90.5 125.5zM348 736h-90q-12 0 -19 10l-108 136q-3 4 -2 7t6 3h95q13 0 23 -10l49 -49h2l48 49q10 10 23 10h95q5 0 6.5 -3t-1.5 -7l-108 -136q-7 -10 -19 -10z" />
    <glyph glyph-name="ccaron" unicode="&#x10d;" horiz-adv-x="493" 
d="M308 541h-91q-11 0 -18 10l-109 137q-3 4 -1.5 7t6.5 3h95q13 0 23 -10l48 -49h2l49 49q10 10 23 10h95q5 0 6.5 -3t-1.5 -7l-109 -137q-7 -10 -18 -10zM263 -12q-80 0 -137.5 37t-79.5 106q-14 39 -14 112q0 74 14 113q22 69 79.5 106t137.5 37q71 0 124.5 -31.5
t77.5 -80.5q4 -9 -4 -14l-112 -58q-11 -7 -15 3q-24 43 -66 43q-44 0 -59 -42q-7 -21 -7 -76q0 -54 7 -75q15 -42 59 -42q42 0 66 43q4 10 15 3l112 -58q8 -5 4 -14q-24 -49 -77.5 -80.5t-124.5 -31.5z" />
    <glyph glyph-name="Dcaron" unicode="&#x10e;" horiz-adv-x="631" 
d="M340 736h-90q-12 0 -19 10l-108 136q-3 4 -2 7t6 3h95q13 0 23 -10l49 -49h2l48 49q10 10 23 10h95q5 0 6.5 -3t-1.5 -7l-108 -136q-7 -10 -19 -10zM55 10v660q0 10 10 10h263q192 0 242 -155q20 -63 20 -185t-20 -185q-50 -155 -242 -155h-263q-10 0 -10 10zM231 162
q0 -6 6 -6h53q47 0 73.5 15t38.5 50q10 33 10 119t-10 119q-12 35 -38.5 50t-73.5 15h-53q-6 0 -6 -6v-356z" />
    <glyph glyph-name="dcaron" unicode="&#x10f;" horiz-adv-x="581" 
d="M543 472q-11 0 -11 13v185q0 10 10 10h109q10 0 10 -10v-94q0 -13 -9 -21l-92 -75q-9 -8 -17 -8zM493 0h-148q-10 0 -10 10v36h-1q-38 -58 -125 -58q-123 0 -161 117q-17 55 -17 138q0 84 17 139q38 117 161 117q87 0 125 -58h1v229q0 10 10 10h148q10 0 10 -10v-660
q0 -10 -10 -10zM268 126q46 0 59 41q8 21 8 76q0 56 -8 77q-13 41 -59 41q-45 0 -60 -41q-7 -22 -7 -77q0 -54 7 -76q15 -41 60 -41z" />
    <glyph glyph-name="Dcroat" unicode="&#x110;" horiz-adv-x="631" 
d="M328 0h-263q-10 0 -10 10v266q0 6 -6 6h-25q-10 0 -10 10v102q0 10 10 10h25q6 0 6 6v260q0 10 10 10h263q192 0 242 -155q20 -63 20 -185t-20 -185q-50 -155 -242 -155zM290 156q47 0 73.5 15t38.5 50q10 33 10 119t-10 119q-12 35 -38.5 50t-73.5 15h-53q-6 0 -6 -6
v-108q0 -6 6 -6h70q10 0 10 -10v-102q0 -10 -10 -10h-70q-6 0 -6 -6v-114q0 -6 6 -6h53z" />
    <glyph glyph-name="dcroat" unicode="&#x111;" horiz-adv-x="557" 
d="M336 441v92q0 6 -6 6h-95q-10 0 -10 10v83q0 10 10 10h95q6 0 6 6v22q0 10 10 10h148q10 0 10 -10v-22q0 -6 6 -6h32q10 0 10 -10v-83q0 -10 -10 -10h-32q-6 0 -6 -6v-523q0 -10 -10 -10h-148q-10 0 -10 10v36h-1q-38 -58 -125 -58q-123 0 -161 117q-17 55 -17 138
q0 84 17 139q38 117 161 117q87 0 125 -58h1zM269 126q46 0 59 41q8 21 8 76q0 56 -8 77q-13 41 -59 41q-45 0 -60 -41q-7 -22 -7 -77q0 -54 7 -76q15 -41 60 -41z" />
    <glyph glyph-name="Emacron" unicode="&#x112;" horiz-adv-x="557" 
d="M437 761h-301q-10 0 -10 10v90q0 10 10 10h301q10 0 10 -10v-90q0 -10 -10 -10zM55 10v660q0 10 10 10h445q10 0 10 -10v-129q0 -10 -10 -10h-273q-6 0 -6 -6v-103q0 -6 6 -6h224q10 0 10 -10v-126q0 -10 -10 -10h-224q-6 0 -6 -6v-109q0 -6 6 -6h273q10 0 10 -10v-129
q0 -10 -10 -10h-445q-10 0 -10 10z" />
    <glyph glyph-name="emacron" unicode="&#x113;" horiz-adv-x="533" 
d="M275 -12q-88 0 -146.5 37.5t-80.5 105.5q-16 46 -16 112t15 113q23 68 79.5 105.5t138.5 37.5q86 0 142.5 -36.5t77.5 -104.5q16 -48 16 -152q0 -10 -11 -10h-289q-6 0 -6 -6q2 -14 4 -20q17 -53 94 -53q61 0 109 39q8 7 15 0l71 -73q9 -7 -1 -15q-83 -80 -212 -80z
M201 298h132q6 0 6 6q0 19 -4 30q-14 44 -68 44t-68 -44q-4 -16 -4 -30q0 -6 6 -6zM416 562h-301q-10 0 -10 10v91q0 10 10 10h301q10 0 10 -10v-91q0 -10 -10 -10z" />
    <glyph glyph-name="Ebreve" unicode="&#x114;" horiz-adv-x="557" 
d="M282 734q-68 0 -113 40.5t-47 100.5q0 10 12 10h65q10 0 14 -10q18 -40 69 -40q52 0 70 40q4 10 14 10h65q12 0 12 -10q-2 -60 -47 -100.5t-114 -40.5zM55 10v660q0 10 10 10h445q10 0 10 -10v-129q0 -10 -10 -10h-273q-6 0 -6 -6v-103q0 -6 6 -6h224q10 0 10 -10v-126
q0 -10 -10 -10h-224q-6 0 -6 -6v-109q0 -6 6 -6h273q10 0 10 -10v-129q0 -10 -10 -10h-445q-10 0 -10 10z" />
    <glyph glyph-name="ebreve" unicode="&#x115;" horiz-adv-x="533" 
d="M275 -12q-88 0 -146.5 37.5t-80.5 105.5q-16 46 -16 112t15 113q23 68 79.5 105.5t138.5 37.5q86 0 142.5 -36.5t77.5 -104.5q16 -48 16 -152q0 -10 -11 -10h-289q-6 0 -6 -6q2 -14 4 -20q17 -53 94 -53q61 0 109 39q8 7 15 0l71 -73q9 -7 -1 -15q-83 -80 -212 -80z
M201 298h132q6 0 6 6q0 19 -4 30q-14 44 -68 44t-68 -44q-4 -16 -4 -30q0 -6 6 -6zM265 538q-68 0 -113 40.5t-47 100.5q0 11 12 11h65q10 0 14 -11q18 -40 69 -40q52 0 70 40q4 11 14 11h65q12 0 12 -11q-2 -60 -47.5 -100.5t-113.5 -40.5z" />
    <glyph glyph-name="Edotaccent" unicode="&#x116;" horiz-adv-x="557" 
d="M351 750h-138q-10 0 -10 10v110q0 10 10 10h138q10 0 10 -10v-110q0 -10 -10 -10zM55 10v660q0 10 10 10h445q10 0 10 -10v-129q0 -10 -10 -10h-273q-6 0 -6 -6v-103q0 -6 6 -6h224q10 0 10 -10v-126q0 -10 -10 -10h-224q-6 0 -6 -6v-109q0 -6 6 -6h273q10 0 10 -10v-129
q0 -10 -10 -10h-445q-10 0 -10 10z" />
    <glyph glyph-name="edotaccent" unicode="&#x117;" horiz-adv-x="533" 
d="M275 -12q-88 0 -146.5 37.5t-80.5 105.5q-16 46 -16 112t15 113q23 68 79.5 105.5t138.5 37.5q86 0 142.5 -36.5t77.5 -104.5q16 -48 16 -152q0 -10 -11 -10h-289q-6 0 -6 -6q2 -14 4 -20q17 -53 94 -53q61 0 109 39q8 7 15 0l71 -73q9 -7 -1 -15q-83 -80 -212 -80z
M201 298h132q6 0 6 6q0 19 -4 30q-14 44 -68 44t-68 -44q-4 -16 -4 -30q0 -6 6 -6zM334 550h-138q-10 0 -10 10v110q0 10 10 10h138q10 0 10 -10v-110q0 -10 -10 -10z" />
    <glyph glyph-name="Eogonek" unicode="&#x118;" horiz-adv-x="557" 
d="M403 -192q-51 0 -80.5 26.5t-29.5 70.5q0 56 53 95h-281q-10 0 -10 10v660q0 10 10 10h445q10 0 10 -10v-129q0 -10 -10 -10h-273q-6 0 -6 -6v-103q0 -6 6 -6h224q10 0 10 -10v-126q0 -10 -10 -10h-224q-6 0 -6 -6v-109q0 -6 6 -6h273q10 0 10 -10v-129q0 -10 -10 -10
h-11q-85 -39 -85 -66q0 -16 17 -16q10 0 24 8q10 5 14 -4l37 -69q5 -9 -3 -14q-47 -31 -100 -31z" />
    <glyph glyph-name="eogonek" unicode="&#x119;" horiz-adv-x="533" 
d="M347 -192q-51 0 -80.5 26.5t-29.5 70.5q0 42 36 83h-9q-84 2 -139.5 39.5t-76.5 103.5q-16 46 -16 112t15 113q23 68 79.5 105.5t138.5 37.5q86 0 142.5 -36.5t77.5 -104.5q16 -48 16 -152q0 -10 -11 -10h-289q-6 0 -6 -6q2 -14 4 -20q17 -53 94 -53q61 0 109 39
q8 7 15 0l71 -73q9 -7 -1 -15q-21 -21 -41 -33q-88 -72 -88 -101q0 -16 17 -16q9 0 25 8q8 5 13 -3l38 -71q5 -8 -4 -13q-47 -31 -100 -31zM333 298q6 0 6 6q0 19 -4 30q-14 44 -68 44t-68 -44q-4 -16 -4 -30q0 -6 6 -6h132z" />
    <glyph glyph-name="Ecaron" unicode="&#x11a;" horiz-adv-x="557" 
d="M330 736h-90q-12 0 -19 10l-108 136q-3 4 -2 7t6 3h95q13 0 23 -10l49 -49h2l48 49q10 10 23 10h95q5 0 6.5 -3t-1.5 -7l-108 -136q-7 -10 -19 -10zM55 10v660q0 10 10 10h445q10 0 10 -10v-129q0 -10 -10 -10h-273q-6 0 -6 -6v-103q0 -6 6 -6h224q10 0 10 -10v-126
q0 -10 -10 -10h-224q-6 0 -6 -6v-109q0 -6 6 -6h273q10 0 10 -10v-129q0 -10 -10 -10h-445q-10 0 -10 10z" />
    <glyph glyph-name="ecaron" unicode="&#x11b;" horiz-adv-x="533" 
d="M311 541h-91q-11 0 -18 10l-109 137q-3 4 -1.5 7t6.5 3h95q13 0 23 -10l48 -49h2l49 49q10 10 23 10h95q5 0 6.5 -3t-1.5 -7l-109 -137q-7 -10 -18 -10zM275 -12q-88 0 -146.5 37.5t-80.5 105.5q-16 46 -16 112t15 113q23 68 79.5 105.5t138.5 37.5q86 0 142.5 -36.5
t77.5 -104.5q16 -48 16 -152q0 -10 -11 -10h-289q-6 0 -6 -6q2 -14 4 -20q17 -53 94 -53q61 0 109 39q8 7 15 0l71 -73q9 -7 -1 -15q-83 -80 -212 -80zM201 298h132q6 0 6 6q0 19 -4 30q-14 44 -68 44t-68 -44q-4 -16 -4 -30q0 -6 6 -6z" />
    <glyph glyph-name="Gcircumflex" unicode="&#x11c;" horiz-adv-x="628" 
d="M59 155q-20 65 -20 185t20 185q26 81 94.5 124t161.5 43q91 0 154.5 -39t92.5 -106q5 -11 -5 -16l-130 -55q-10 -5 -15 4q-34 55 -97 55q-69 0 -88 -60q-10 -30 -10 -135q0 -102 10 -135q21 -60 93 -60q73 0 90 54q6 18 6 44q0 6 -6 6h-74q-10 0 -10 10v113q0 10 10 10
h243q10 0 10 -10v-52q0 -104 -18 -158q-27 -84 -94.5 -129t-161.5 -45q-93 0 -161.5 43t-94.5 124zM481 741h-95q-13 0 -23 10l-48 50h-2l-49 -50q-10 -10 -23 -10h-95q-4 0 -5.5 3t1.5 7l108 137q7 10 19 10h90q12 0 19 -10l108 -137q3 -4 1.5 -7t-6.5 -3z" />
    <glyph glyph-name="gcircumflex" unicode="&#x11d;" horiz-adv-x="552" 
d="M438 544h-95q-13 0 -23 10l-49 50h-2l-48 -50q-10 -10 -23 -10h-95q-5 0 -6.5 3t1.5 7l109 137q7 10 18 10h91q11 0 18 -10l109 -137q3 -4 1.5 -7t-6.5 -3zM240 -192q-56 0 -110.5 22t-80.5 54q-5 7 1 15l84 86q8 7 15 0q47 -39 96 -39q45 0 65.5 24t20.5 75v37h-1
q-34 -57 -124 -57q-122 0 -160 117q-16 48 -16 120q0 71 16 120q38 117 160 117q89 0 124 -58h1v36q0 10 10 10h148q10 0 10 -10v-402q0 -138 -65 -202.5t-194 -64.5zM265 162q46 0 59 43q7 24 7 57q0 32 -7 57q-14 42 -59 42t-58 -42q-7 -20 -7 -57t7 -57q13 -43 58 -43z
" />
    <glyph glyph-name="Gbreve" unicode="&#x11e;" horiz-adv-x="628" 
d="M313 734q-68 0 -113 40.5t-47 100.5q0 10 12 10h65q10 0 14 -10q18 -40 69 -40q52 0 70 40q4 10 14 10h65q12 0 12 -10q-2 -60 -47 -100.5t-114 -40.5zM59 155q-20 65 -20 185t20 185q26 81 94.5 124t161.5 43q91 0 154.5 -39t92.5 -106q5 -11 -5 -16l-130 -55
q-10 -5 -15 4q-34 55 -97 55q-69 0 -88 -60q-10 -30 -10 -135q0 -102 10 -135q21 -60 93 -60q73 0 90 54q6 18 6 44q0 6 -6 6h-74q-10 0 -10 10v113q0 10 10 10h243q10 0 10 -10v-52q0 -104 -18 -158q-27 -84 -94.5 -129t-161.5 -45q-93 0 -161.5 43t-94.5 124z" />
    <glyph glyph-name="gbreve" unicode="&#x11f;" horiz-adv-x="552" 
d="M240 -192q-56 0 -110.5 22t-80.5 54q-5 7 1 15l84 86q8 7 15 0q47 -39 96 -39q45 0 65.5 24t20.5 75v37h-1q-34 -57 -124 -57q-122 0 -160 117q-16 48 -16 120q0 71 16 120q38 117 160 117q89 0 124 -58h1v36q0 10 10 10h148q10 0 10 -10v-402q0 -138 -65 -202.5
t-194 -64.5zM265 162q46 0 59 43q7 24 7 57q0 32 -7 57q-14 42 -59 42t-58 -42q-7 -20 -7 -57t7 -57q13 -43 58 -43zM270 538q-68 0 -113 40.5t-47 100.5q0 11 12 11h65q10 0 14 -11q18 -40 69 -40q52 0 70 40q4 11 14 11h65q12 0 12 -11q-2 -60 -47.5 -100.5t-113.5 -40.5z
" />
    <glyph glyph-name="Gdotaccent" unicode="&#x120;" horiz-adv-x="628" 
d="M382 750h-138q-10 0 -10 10v110q0 10 10 10h138q10 0 10 -10v-110q0 -10 -10 -10zM59 155q-20 65 -20 185t20 185q26 81 94.5 124t161.5 43q91 0 154.5 -39t92.5 -106q5 -11 -5 -16l-130 -55q-10 -5 -15 4q-34 55 -97 55q-69 0 -88 -60q-10 -30 -10 -135q0 -102 10 -135
q21 -60 93 -60q73 0 90 54q6 18 6 44q0 6 -6 6h-74q-10 0 -10 10v113q0 10 10 10h243q10 0 10 -10v-52q0 -104 -18 -158q-27 -84 -94.5 -129t-161.5 -45q-93 0 -161.5 43t-94.5 124z" />
    <glyph glyph-name="gdotaccent" unicode="&#x121;" horiz-adv-x="552" 
d="M240 -192q-56 0 -110.5 22t-80.5 54q-5 7 1 15l84 86q8 7 15 0q47 -39 96 -39q45 0 65.5 24t20.5 75v37h-1q-34 -57 -124 -57q-122 0 -160 117q-16 48 -16 120q0 71 16 120q38 117 160 117q89 0 124 -58h1v36q0 10 10 10h148q10 0 10 -10v-402q0 -138 -65 -202.5
t-194 -64.5zM265 162q46 0 59 43q7 24 7 57q0 32 -7 57q-14 42 -59 42t-58 -42q-7 -20 -7 -57t7 -57q13 -43 58 -43zM339 550h-138q-10 0 -10 10v110q0 10 10 10h138q10 0 10 -10v-110q0 -10 -10 -10z" />
    <glyph glyph-name="Gcommaaccent" unicode="&#x122;" horiz-adv-x="628" 
d="M255 -248q-11 0 -11 13v179q0 10 10 10h120q10 0 10 -10v-89q0 -14 -9 -20l-103 -75q-11 -8 -17 -8zM59 155q-20 65 -20 185t20 185q26 81 94.5 124t161.5 43q91 0 154.5 -39t92.5 -106q5 -11 -5 -16l-130 -55q-10 -5 -15 4q-34 55 -97 55q-69 0 -88 -60
q-10 -30 -10 -135q0 -102 10 -135q21 -60 93 -60q73 0 90 54q6 18 6 44q0 6 -6 6h-74q-10 0 -10 10v113q0 10 10 10h243q10 0 10 -10v-52q0 -104 -18 -158q-27 -84 -94.5 -129t-161.5 -45q-93 0 -161.5 43t-94.5 124z" />
    <glyph glyph-name="gcommaaccent" unicode="&#x123;" horiz-adv-x="552" 
d="M331 550h-120q-10 0 -10 10v88q0 15 8 21l104 75q10 7 17 7q11 0 11 -12v-179q0 -10 -10 -10zM240 -192q-56 0 -110.5 22t-80.5 54q-5 7 1 15l84 86q8 7 15 0q47 -39 96 -39q45 0 65.5 24t20.5 75v37h-1q-34 -57 -124 -57q-122 0 -160 117q-16 48 -16 120q0 71 16 120
q38 117 160 117q89 0 124 -58h1v36q0 10 10 10h148q10 0 10 -10v-402q0 -138 -65 -202.5t-194 -64.5zM265 162q46 0 59 43q7 24 7 57q0 32 -7 57q-14 42 -59 42t-58 -42q-7 -20 -7 -57t7 -57q13 -43 58 -43z" />
    <glyph glyph-name="Hcircumflex" unicode="&#x124;" horiz-adv-x="659" 
d="M55 10v660q0 10 10 10h156q10 0 10 -10v-241q0 -6 6 -6h185q6 0 6 6v241q0 10 10 10h156q10 0 10 -10v-660q0 -10 -10 -10h-156q-10 0 -10 10v251q0 6 -6 6h-185q-6 0 -6 -6v-251q0 -10 -10 -10h-156q-10 0 -10 10zM496 741h-95q-13 0 -23 10l-48 50h-2l-49 -50
q-10 -10 -23 -10h-95q-5 0 -6 3t2 7l108 137q7 10 19 10h90q12 0 19 -10l108 -137q3 -4 1.5 -7t-6.5 -3z" />
    <glyph glyph-name="hcircumflex" unicode="&#x125;" horiz-adv-x="558" 
d="M498 0h-148q-10 0 -10 10v278q0 71 -59 71q-28 0 -44 -19t-16 -52v-278q0 -10 -10 -10h-148q-10 0 -10 10v660q0 10 10 10h148q10 0 10 -10v-228h1q39 57 125 57q80 0 120.5 -49t40.5 -133v-307q0 -10 -10 -10zM451 741h-95q-13 0 -23 10l-48 50h-2l-49 -50
q-10 -10 -23 -10h-95q-4 0 -5.5 3t1.5 7l108 137q7 10 19 10h90q12 0 19 -10l108 -137q3 -4 1.5 -7t-6.5 -3z" />
    <glyph glyph-name="Hbar" unicode="&#x126;" horiz-adv-x="659" 
d="M594 0h-156q-10 0 -10 10v251q0 6 -6 6h-185q-6 0 -6 -6v-251q0 -10 -10 -10h-156q-10 0 -10 10v482q0 6 -6 6h-29q-10 0 -10 10v86q0 10 10 10h29q6 0 6 6v60q0 10 10 10h156q10 0 10 -10v-60q0 -6 6 -6h185q6 0 6 6v60q0 10 10 10h156q10 0 10 -10v-60q0 -6 6 -6h29
q10 0 10 -10v-86q0 -10 -10 -10h-29q-6 0 -6 -6v-482q0 -10 -10 -10zM422 423q6 0 6 6v63q0 6 -6 6h-185q-6 0 -6 -6v-63q0 -6 6 -6h185z" />
    <glyph glyph-name="hbar" unicode="&#x127;" horiz-adv-x="558" 
d="M498 0h-148q-10 0 -10 10v278q0 71 -59 71q-28 0 -44 -19t-16 -52v-278q0 -10 -10 -10h-148q-10 0 -10 10v523q0 6 -6 6h-32q-10 0 -10 10v83q0 10 10 10h32q6 0 6 6v22q0 10 10 10h148q10 0 10 -10v-22q0 -6 6 -6h95q10 0 10 -10v-83q0 -10 -10 -10h-95q-6 0 -6 -6v-91
h1q39 57 125 57q80 0 120.5 -49t40.5 -133v-307q0 -10 -10 -10z" />
    <glyph glyph-name="Itilde" unicode="&#x128;" horiz-adv-x="286" 
d="M55 10v660q0 10 10 10h156q10 0 10 -10v-660q0 -10 -10 -10h-156q-10 0 -10 10zM213 740q-37 0 -83 23q-36 18 -60 18q-33 0 -76 -33q-4 -3 -7 -1.5t-3 5.5v81q0 12 9 22q37 37 81 37q36 0 84 -24q38 -17 60 -17q33 0 75 32q11 7 11 -3v-81q0 -13 -10 -22
q-37 -37 -81 -37z" />
    <glyph glyph-name="itilde" unicode="&#x129;" horiz-adv-x="274" 
d="M211 0h-148q-10 0 -10 10v467q0 10 10 10h148q10 0 10 -10v-467q0 -10 -10 -10zM206 545q-37 0 -83 23q-36 18 -60 18q-32 0 -76 -32q-4 -3 -7 -2t-3 5v81q0 13 9 22q37 37 81 37q38 0 84 -23q36 -18 60 -18q34 0 75 33q11 7 11 -4v-81q0 -13 -10 -22q-37 -37 -81 -37z
" />
    <glyph glyph-name="Imacron" unicode="&#x12a;" horiz-adv-x="286" 
d="M55 10v660q0 10 10 10h156q10 0 10 -10v-660q0 -10 -10 -10h-156q-10 0 -10 10zM295 761h-301q-10 0 -10 10v90q0 10 10 10h301q10 0 10 -10v-90q0 -10 -10 -10z" />
    <glyph glyph-name="imacron" unicode="&#x12b;" horiz-adv-x="274" 
d="M211 0h-148q-10 0 -10 10v467q0 10 10 10h148q10 0 10 -10v-467q0 -10 -10 -10zM288 562h-301q-10 0 -10 10v91q0 10 10 10h301q10 0 10 -10v-91q0 -10 -10 -10z" />
    <glyph glyph-name="Ibreve" unicode="&#x12c;" horiz-adv-x="286" 
d="M55 10v660q0 10 10 10h156q10 0 10 -10v-660q0 -10 -10 -10h-156q-10 0 -10 10zM144 734q-68 0 -113 40.5t-47 100.5q0 10 12 10h65q10 0 14 -10q18 -40 69 -40q52 0 70 40q4 10 14 10h65q12 0 12 -10q-2 -60 -47 -100.5t-114 -40.5z" />
    <glyph glyph-name="ibreve" unicode="&#x12d;" horiz-adv-x="274" 
d="M211 0h-148q-10 0 -10 10v467q0 10 10 10h148q10 0 10 -10v-467q0 -10 -10 -10zM137 538q-68 0 -113 40.5t-47 100.5q0 11 12 11h65q10 0 14 -11q18 -40 69 -40q52 0 70 40q4 11 14 11h65q12 0 12 -11q-2 -60 -47.5 -100.5t-113.5 -40.5z" />
    <glyph glyph-name="Iogonek" unicode="&#x12e;" horiz-adv-x="286" 
d="M134 -192q-51 0 -80.5 26.5t-29.5 70.5q0 51 50 95h-9q-10 0 -10 10v660q0 10 10 10h156q10 0 10 -10v-659q0 -7 -7 -11q-48 -25 -63.5 -39t-15.5 -27q0 -16 17 -16q11 0 25 8q8 5 13 -3l38 -71q5 -8 -4 -13q-46 -31 -100 -31z" />
    <glyph glyph-name="iogonek" unicode="&#x12f;" horiz-adv-x="274" 
d="M211 550h-148q-10 0 -10 10v110q0 10 10 10h148q10 0 10 -10v-110q0 -10 -10 -10zM129 -192q-51 0 -80.5 26.5t-29.5 70.5q0 56 46 95h-3q-9 2 -9 10v467q0 10 10 10h148q10 0 10 -10v-467q0 -7 -9 -12q-72 -39 -72 -64q0 -16 17 -16q10 0 24 8q9 4 13 -3l38 -71
q5 -8 -4 -13q-46 -31 -99 -31z" />
    <glyph glyph-name="Idotaccent" unicode="&#x130;" horiz-adv-x="286" 
d="M55 10v660q0 10 10 10h156q10 0 10 -10v-660q0 -10 -10 -10h-156q-10 0 -10 10zM213 750h-138q-10 0 -10 10v110q0 10 10 10h138q10 0 10 -10v-110q0 -10 -10 -10z" />
    <glyph glyph-name="dotlessi" unicode="&#x131;" horiz-adv-x="274" 
d="M211 0h-148q-10 0 -10 10v467q0 10 10 10h148q10 0 10 -10v-467q0 -10 -10 -10z" />
    <glyph glyph-name="Jcircumflex" unicode="&#x134;" horiz-adv-x="534" 
d="M18 81q-5 8 1 14l111 88q8 6 14 -2q32 -36 75 -36q86 0 86 100v425q0 10 10 10h156q10 0 10 -10v-411q0 -134 -67 -202.5t-193 -68.5q-65 0 -120.5 26t-82.5 67zM558 741h-95q-13 0 -23 10l-48 50h-2l-49 -50q-10 -10 -23 -10h-95q-5 0 -6 3t2 7l108 137q7 10 19 10h90
q12 0 19 -10l108 -137q3 -4 1.5 -7t-6.5 -3z" />
    <glyph glyph-name="jcircumflex" unicode="&#x135;" horiz-adv-x="274" 
d="M22 -180h-38q-10 0 -10 10v118q0 10 10 10h15q31 0 42.5 11t11.5 44v464q0 10 10 10h148q10 0 10 -10v-464q0 -101 -50 -147t-149 -46zM306 544h-95q-13 0 -23 10l-49 50h-2l-48 -50q-10 -10 -23 -10h-95q-5 0 -6.5 3t1.5 7l109 137q7 10 18 10h91q11 0 18 -10l109 -137
q3 -4 1.5 -7t-6.5 -3z" />
    <glyph glyph-name="Kcommaaccent" unicode="&#x136;" horiz-adv-x="657" 
d="M270 -248q-11 0 -11 13v179q0 10 10 10h120q10 0 10 -10v-89q0 -14 -9 -20l-103 -75q-11 -8 -17 -8zM55 10v660q0 10 10 10h156q10 0 10 -10v-266l195 267q8 9 17 9h176q6 0 7.5 -4t-1.5 -9l-203 -263l215 -393q2 -4 0.5 -7.5t-6.5 -3.5h-179q-12 0 -16 9l-132 256
l-73 -97v-158q0 -10 -10 -10h-156q-10 0 -10 10z" />
    <glyph glyph-name="kcommaaccent" unicode="&#x137;" horiz-adv-x="540" 
d="M214 -248q-11 0 -11 13v179q0 10 10 10h120q10 0 10 -10v-89q0 -14 -9 -20l-103 -75q-11 -8 -17 -8zM525 0h-159q-11 0 -15 10l-95 188l-36 -48v-140q0 -10 -10 -10h-147q-10 0 -10 10v660q0 10 10 10h147q10 0 10 -10v-342l114 149q9 10 19 10h153q4 0 5.5 -3.5
t-1.5 -6.5l-143 -166l163 -301q6 -10 -5 -10z" />
    <glyph glyph-name="kgreenlandic" unicode="&#x138;" horiz-adv-x="540" 
d="M525 0h-159q-11 0 -15 10l-95 188l-36 -48v-140q0 -10 -10 -10h-147q-10 0 -10 10v467q0 10 10 10h147q10 0 10 -10v-149l114 149q9 10 19 10h153q4 0 5.5 -3.5t-1.5 -6.5l-143 -166l163 -301q6 -10 -5 -10z" />
    <glyph glyph-name="Lacute" unicode="&#x139;" horiz-adv-x="554" 
d="M205 747h-115q-4 0 -5.5 3t1.5 7l102 122q8 10 18 10h142q5 0 6.5 -3t-1.5 -7l-128 -123q-9 -9 -20 -9zM55 10v660q0 10 10 10h156q10 0 10 -10v-508q0 -6 6 -6h288q10 0 10 -10v-136q0 -10 -10 -10h-460q-10 0 -10 10z" />
    <glyph glyph-name="lacute" unicode="&#x13a;" horiz-adv-x="315" 
d="M193 747h-115q-4 0 -5.5 3t1.5 7l102 122q8 10 18 10h142q5 0 6.5 -3t-1.5 -7l-128 -123q-9 -9 -20 -9zM281 -6h-61q-91 0 -130 39.5t-39 131.5v505q0 10 10 10h148q10 0 10 -10v-488q0 -48 41 -48h21q10 0 10 -10v-120q0 -10 -10 -10z" />
    <glyph glyph-name="Lcommaaccent" unicode="&#x13b;" horiz-adv-x="554" 
d="M225 -248q-11 0 -11 13v179q0 10 10 10h120q10 0 10 -10v-89q0 -14 -9 -20l-103 -75q-11 -8 -17 -8zM55 10v660q0 10 10 10h156q10 0 10 -10v-508q0 -6 6 -6h288q10 0 10 -10v-136q0 -10 -10 -10h-460q-10 0 -10 10z" />
    <glyph glyph-name="lcommaaccent" unicode="&#x13c;" horiz-adv-x="315" 
d="M119 -248q-11 0 -11 13v179q0 10 10 10h120q10 0 10 -10v-89q0 -14 -9 -20l-103 -75q-11 -8 -17 -8zM281 -6h-61q-91 0 -130 39.5t-39 131.5v505q0 10 10 10h148q10 0 10 -10v-488q0 -48 41 -48h21q10 0 10 -10v-120q0 -10 -10 -10z" />
    <glyph glyph-name="Lcaron" unicode="&#x13d;" horiz-adv-x="554" 
d="M302 472q-11 0 -11 13v185q0 10 10 10h109q10 0 10 -10v-94q0 -13 -9 -21l-92 -75q-9 -8 -17 -8zM55 10v660q0 10 10 10h156q10 0 10 -10v-508q0 -6 6 -6h288q10 0 10 -10v-136q0 -10 -10 -10h-460q-10 0 -10 10z" />
    <glyph glyph-name="lcaron" unicode="&#x13e;" horiz-adv-x="316" 
d="M263 472q-11 0 -11 13v185q0 10 10 10h109q10 0 10 -10v-94q0 -13 -9 -21l-92 -75q-9 -8 -17 -8zM281 -6h-61q-91 0 -130 39.5t-39 131.5v505q0 10 10 10h148q10 0 10 -10v-488q0 -48 41 -48h21q10 0 10 -10v-120q0 -10 -10 -10z" />
    <glyph glyph-name="Ldot" unicode="&#x13f;" horiz-adv-x="554" 
d="M55 10v660q0 10 10 10h156q10 0 10 -10v-508q0 -6 6 -6h288q10 0 10 -10v-136q0 -10 -10 -10h-460q-10 0 -10 10zM490 265h-139q-10 0 -10 10v138q0 10 10 10h139q10 0 10 -10v-138q0 -10 -10 -10z" />
    <glyph glyph-name="ldot" unicode="&#x140;" horiz-adv-x="418" 
d="M281 -6h-61q-91 0 -130 39.5t-39 131.5v505q0 10 10 10h148q10 0 10 -10v-488q0 -48 41 -48h21q10 0 10 -10v-120q0 -10 -10 -10zM414 264h-139q-10 0 -10 10v138q0 10 10 10h139q10 0 10 -10v-138q0 -10 -10 -10z" />
    <glyph glyph-name="Lslash" unicode="&#x141;" horiz-adv-x="554" 
d="M525 0h-460q-10 0 -10 10v231l-40 -20q-10 -5 -10 6v107q0 9 10 14l40 20v302q0 10 10 10h156q10 0 10 -10v-220l128 66q10 5 10 -6v-108q0 -9 -10 -14l-128 -65v-161q0 -6 6 -6h288q10 0 10 -10v-136q0 -10 -10 -10z" />
    <glyph glyph-name="lslash" unicode="&#x142;" horiz-adv-x="316" 
d="M281 359l-62 -32v-145q0 -48 41 -48h21q10 0 10 -10v-120q0 -10 -10 -10h-61q-91 0 -130 39.5t-39 131.5v81l-32 -16q-10 -5 -10 6v105q0 9 10 14l32 16v299q0 10 10 10h148q10 0 10 -10v-218l62 32q10 5 10 -6v-104q0 -10 -10 -15z" />
    <glyph glyph-name="Nacute" unicode="&#x143;" horiz-adv-x="653" 
d="M345 747h-115q-4 0 -5.5 3t1.5 7l102 122q8 10 18 10h142q5 0 6.5 -3t-1.5 -7l-128 -123q-9 -9 -20 -9zM55 10v660q0 10 10 10h147q13 0 17 -10l205 -385h4v385q0 10 10 10h140q10 0 10 -10v-660q0 -10 -10 -10h-147q-13 0 -17 10l-203 384h-6v-384q0 -10 -10 -10h-140
q-10 0 -10 10z" />
    <glyph glyph-name="nacute" unicode="&#x144;" horiz-adv-x="558" 
d="M304 546h-116q-10 0 -5 10l80 136q6 10 17 10h139q5 0 6.5 -3t-1.5 -7l-103 -136q-7 -10 -17 -10zM498 0h-148q-10 0 -10 10v278q0 71 -59 71q-28 0 -44 -19t-16 -52v-278q0 -10 -10 -10h-148q-10 0 -10 10v467q0 10 10 10h148q10 0 10 -10v-35h1q39 57 125 57
q80 0 120.5 -49t40.5 -133v-307q0 -10 -10 -10z" />
    <glyph glyph-name="Ncommaaccent" unicode="&#x145;" horiz-adv-x="653" 
d="M267 -248q-11 0 -11 13v179q0 10 10 10h120q10 0 10 -10v-89q0 -14 -9 -20l-103 -75q-11 -8 -17 -8zM55 10v660q0 10 10 10h147q13 0 17 -10l205 -385h4v385q0 10 10 10h140q10 0 10 -10v-660q0 -10 -10 -10h-147q-13 0 -17 10l-203 384h-6v-384q0 -10 -10 -10h-140
q-10 0 -10 10z" />
    <glyph glyph-name="ncommaaccent" unicode="&#x146;" horiz-adv-x="558" 
d="M220 -248q-11 0 -11 13v179q0 10 10 10h120q10 0 10 -10v-89q0 -14 -9 -20l-103 -75q-11 -8 -17 -8zM498 0h-148q-10 0 -10 10v278q0 71 -59 71q-28 0 -44 -19t-16 -52v-278q0 -10 -10 -10h-148q-10 0 -10 10v467q0 10 10 10h148q10 0 10 -10v-35h1q39 57 125 57
q80 0 120.5 -49t40.5 -133v-307q0 -10 -10 -10z" />
    <glyph glyph-name="Ncaron" unicode="&#x147;" horiz-adv-x="653" 
d="M371 736h-90q-12 0 -19 10l-108 136q-3 4 -1.5 7t5.5 3h95q13 0 23 -10l49 -49h2l48 49q10 10 23 10h95q5 0 6.5 -3t-1.5 -7l-108 -136q-7 -10 -19 -10zM55 10v660q0 10 10 10h147q13 0 17 -10l205 -385h4v385q0 10 10 10h140q10 0 10 -10v-660q0 -10 -10 -10h-147
q-13 0 -17 10l-203 384h-6v-384q0 -10 -10 -10h-140q-10 0 -10 10z" />
    <glyph glyph-name="ncaron" unicode="&#x148;" horiz-adv-x="558" 
d="M324 541h-91q-11 0 -18 10l-109 137q-3 4 -1.5 7t6.5 3h95q13 0 23 -10l48 -49h2l49 49q10 10 23 10h95q5 0 6.5 -3t-1.5 -7l-109 -137q-7 -10 -18 -10zM498 0h-148q-10 0 -10 10v278q0 71 -59 71q-28 0 -44 -19t-16 -52v-278q0 -10 -10 -10h-148q-10 0 -10 10v467
q0 10 10 10h148q10 0 10 -10v-35h1q39 57 125 57q80 0 120.5 -49t40.5 -133v-307q0 -10 -10 -10z" />
    <glyph glyph-name="Eng" unicode="&#x14a;" horiz-adv-x="653" 
d="M376 -187h-38q-10 0 -10 10v126q0 10 10 10h15q65 0 73 45v2l-205 388h-6v-384q0 -10 -10 -10h-140q-10 0 -10 10v660q0 10 10 10h147q13 0 17 -10l205 -385h4v385q0 10 10 10h140q10 0 10 -10v-635q0 -222 -222 -222z" />
    <glyph glyph-name="eng" unicode="&#x14b;" horiz-adv-x="558" 
d="M313 -180h-37q-10 0 -10 10v118q0 10 10 10h15q29 0 39 10t10 42v278q0 71 -59 71q-28 0 -44 -19t-16 -52v-278q0 -10 -10 -10h-148q-10 0 -10 10v467q0 10 10 10h148q10 0 10 -10v-35h1q45 57 125 57t120.5 -49t40.5 -133v-304q0 -102 -48 -147.5t-147 -45.5z" />
    <glyph glyph-name="Omacron" unicode="&#x14c;" horiz-adv-x="628" 
d="M464 761h-301q-10 0 -10 10v90q0 10 10 10h301q10 0 10 -10v-90q0 -10 -10 -10zM314 -12q-93 0 -161 43t-94 124q-20 65 -20 185t20 185q26 81 94 124t161 43t161 -43t94 -124q20 -61 20 -185t-20 -185q-26 -81 -94 -124t-161 -43zM314 145q68 0 87 60q10 29 10 135
t-10 135q-19 60 -87 60t-87 -60q-10 -29 -10 -135t10 -135q19 -60 87 -60z" />
    <glyph glyph-name="omacron" unicode="&#x14d;" horiz-adv-x="538" 
d="M419 562h-301q-10 0 -10 10v91q0 10 10 10h301q10 0 10 -10v-91q0 -10 -10 -10zM269 -12q-82 0 -141 36.5t-81 104.5q-15 49 -15 114q0 66 15 115q22 68 81 104.5t141 36.5t140.5 -36t81.5 -105q15 -49 15 -115q0 -65 -15 -114q-23 -69 -81.5 -105t-140.5 -36zM269 126
q45 0 60 41q7 25 7 76q0 52 -7 77q-15 41 -60 41t-60 -41q-7 -25 -7 -77q0 -51 7 -76q15 -41 60 -41z" />
    <glyph glyph-name="Obreve" unicode="&#x14e;" horiz-adv-x="628" 
d="M313 734q-68 0 -113 40.5t-47 100.5q0 10 12 10h65q10 0 14 -10q18 -40 69 -40q52 0 70 40q4 10 14 10h65q12 0 12 -10q-2 -60 -47 -100.5t-114 -40.5zM314 -12q-93 0 -161 43t-94 124q-20 65 -20 185t20 185q26 81 94 124t161 43t161 -43t94 -124q20 -61 20 -185
t-20 -185q-26 -81 -94 -124t-161 -43zM314 145q68 0 87 60q10 29 10 135t-10 135q-19 60 -87 60t-87 -60q-10 -29 -10 -135t10 -135q19 -60 87 -60z" />
    <glyph glyph-name="obreve" unicode="&#x14f;" horiz-adv-x="538" 
d="M269 -12q-82 0 -141 36.5t-81 104.5q-15 49 -15 114q0 66 15 115q22 68 81 104.5t141 36.5t140.5 -36t81.5 -105q15 -49 15 -115q0 -65 -15 -114q-23 -69 -81.5 -105t-140.5 -36zM269 126q45 0 60 41q7 25 7 76q0 52 -7 77q-15 41 -60 41t-60 -41q-7 -25 -7 -77
q0 -51 7 -76q15 -41 60 -41zM268 538q-68 0 -113 40.5t-47 100.5q0 11 12 11h65q10 0 14 -11q18 -40 69 -40q52 0 70 40q4 11 14 11h65q12 0 12 -11q-2 -60 -47.5 -100.5t-113.5 -40.5z" />
    <glyph glyph-name="Ohungarumlaut" unicode="&#x150;" horiz-adv-x="628" 
d="M314 -12q-93 0 -161 43t-94 124q-20 65 -20 185t20 185q26 81 94 124t161 43t161 -43t94 -124q20 -61 20 -185t-20 -185q-26 -81 -94 -124t-161 -43zM314 145q68 0 87 60q10 29 10 135t-10 135q-19 60 -87 60t-87 -60q-10 -29 -10 -135t10 -135q19 -60 87 -60zM447 748
h-97q-11 0 -5 10l74 118q6 10 17 10h114q11 0 5 -10l-89 -118q-6 -10 -19 -10zM263 748h-98q-11 0 -5 10l75 118q6 10 17 10h114q11 0 5 -10l-89 -118q-8 -10 -19 -10z" />
    <glyph glyph-name="ohungarumlaut" unicode="&#x151;" horiz-adv-x="538" 
d="M404 543h-98q-11 0 -6 10l69 137q5 10 16 10h114q5 0 6.5 -3t-0.5 -7l-84 -137q-6 -10 -17 -10zM219 543h-98q-11 0 -6 10l70 137q5 10 16 10h114q5 0 6.5 -3t-0.5 -7l-84 -137q-7 -10 -18 -10zM269 -12q-82 0 -141 36.5t-81 104.5q-15 49 -15 114q0 66 15 115
q22 68 81 104.5t141 36.5t140.5 -36t81.5 -105q15 -49 15 -115q0 -65 -15 -114q-23 -69 -81.5 -105t-140.5 -36zM269 126q45 0 60 41q7 25 7 76q0 52 -7 77q-15 41 -60 41t-60 -41q-7 -25 -7 -77q0 -51 7 -76q15 -41 60 -41z" />
    <glyph glyph-name="OE" unicode="&#x152;" horiz-adv-x="913" 
d="M866 0h-445q-10 0 -10 10v18h-3q-40 -40 -119 -40q-176 0 -229 164q-21 63 -21 188t21 188q53 164 229 164q79 0 119 -40h3v18q0 10 10 10h445q10 0 10 -10v-129q0 -10 -10 -10h-273q-6 0 -6 -6v-103q0 -6 6 -6h224q10 0 10 -10v-126q0 -10 -10 -10h-224q-6 0 -6 -6v-109
q0 -6 6 -6h273q10 0 10 -10v-129q0 -10 -10 -10zM314 145q68 0 87 60q10 29 10 135t-10 135q-19 60 -87 60t-87 -60q-10 -29 -10 -135t10 -135q19 -60 87 -60z" />
    <glyph glyph-name="oe" unicode="&#x153;" horiz-adv-x="836" 
d="M579 -12q-96 0 -157 52h-1q-61 -52 -152 -52q-82 0 -141 36.5t-81 104.5q-15 49 -15 114q0 66 15 115q22 68 81 104.5t141 36.5q91 0 151 -51h2q56 51 147 51q86 0 142 -36.5t78 -104.5q16 -48 16 -152q0 -10 -11 -10h-289q-6 0 -6 -6q0 -8 4 -20q18 -53 94 -53
q61 0 109 39q8 7 14 0l72 -73q8 -8 -1 -15q-83 -80 -212 -80zM637 298q6 0 6 6q0 14 -4 30q-14 44 -68 44t-68 -44q-4 -11 -4 -30q0 -6 6 -6h132zM269 126q45 0 60 41q7 25 7 76q0 52 -7 77q-15 41 -60 41t-60 -41q-7 -25 -7 -77q0 -51 7 -76q15 -41 60 -41z" />
    <glyph glyph-name="Racute" unicode="&#x154;" horiz-adv-x="629" 
d="M593 0h-173q-11 0 -15 10l-103 232h-65q-6 0 -6 -6v-226q0 -10 -10 -10h-156q-10 0 -10 10v660q0 10 10 10h277q115 0 180 -60.5t65 -158.5q0 -64 -29 -113.5t-83 -76.5l125 -259q2 -4 0 -8t-7 -4zM331 387q37 0 58.5 19.5t21.5 52.5t-21.5 52.5t-58.5 19.5h-94
q-6 0 -6 -6v-132q0 -6 6 -6h94zM321 747h-115q-4 0 -5.5 3t1.5 7l102 122q8 10 18 10h142q5 0 6.5 -3t-1.5 -7l-128 -123q-9 -9 -20 -9z" />
    <glyph glyph-name="racute" unicode="&#x155;" horiz-adv-x="429" 
d="M265 546h-116q-10 0 -5 10l80 136q6 10 17 10h139q5 0 6.5 -3t-1.5 -7l-103 -136q-8 -10 -17 -10zM211 0h-148q-10 0 -10 10v467q0 10 10 10h148q10 0 10 -10v-43h1q35 65 126 65q43 0 67 -19q8 -4 5 -13l-57 -141q-5 -6 -14 -1q-37 23 -71 19q-57 -4 -57 -85v-249
q0 -10 -10 -10z" />
    <glyph glyph-name="Rcommaaccent" unicode="&#x156;" horiz-adv-x="629" 
d="M255 -248q-11 0 -11 13v179q0 10 10 10h120q10 0 10 -10v-89q0 -14 -9 -20l-103 -75q-11 -8 -17 -8zM593 0h-173q-11 0 -15 10l-103 232h-65q-6 0 -6 -6v-226q0 -10 -10 -10h-156q-10 0 -10 10v660q0 10 10 10h277q115 0 180 -60.5t65 -158.5q0 -64 -29 -113.5t-83 -76.5
l125 -259q2 -4 0 -8t-7 -4zM331 387q37 0 58.5 19.5t21.5 52.5t-21.5 52.5t-58.5 19.5h-94q-6 0 -6 -6v-132q0 -6 6 -6h94z" />
    <glyph glyph-name="rcommaaccent" unicode="&#x157;" horiz-adv-x="429" 
d="M79 -248q-11 0 -11 13v179q0 10 10 10h120q10 0 10 -10v-89q0 -14 -9 -20l-103 -75q-11 -8 -17 -8zM211 0h-148q-10 0 -10 10v467q0 10 10 10h148q10 0 10 -10v-43h1q35 65 126 65q43 0 67 -19q8 -4 5 -13l-57 -141q-5 -6 -14 -1q-37 23 -71 19q-57 -4 -57 -85v-249
q0 -10 -10 -10z" />
    <glyph glyph-name="Rcaron" unicode="&#x158;" horiz-adv-x="629" 
d="M335 736h-90q-12 0 -19 10l-108 136q-3 4 -1.5 7t5.5 3h95q13 0 23 -10l49 -49h2l48 49q10 10 23 10h95q5 0 6.5 -3t-1.5 -7l-108 -136q-7 -10 -19 -10zM593 0h-173q-11 0 -15 10l-103 232h-65q-6 0 -6 -6v-226q0 -10 -10 -10h-156q-10 0 -10 10v660q0 10 10 10h277
q115 0 180 -60.5t65 -158.5q0 -64 -29 -113.5t-83 -76.5l125 -259q2 -4 0 -8t-7 -4zM331 387q37 0 58.5 19.5t21.5 52.5t-21.5 52.5t-58.5 19.5h-94q-6 0 -6 -6v-132q0 -6 6 -6h94z" />
    <glyph glyph-name="rcaron" unicode="&#x159;" horiz-adv-x="429" 
d="M279 541h-91q-11 0 -18 10l-109 137q-3 4 -1.5 7t6.5 3h95q13 0 23 -10l48 -49h2l49 49q10 10 23 10h95q5 0 6.5 -3t-1.5 -7l-109 -137q-7 -10 -18 -10zM211 0h-148q-10 0 -10 10v467q0 10 10 10h148q10 0 10 -10v-43h1q35 65 126 65q43 0 67 -19q8 -4 5 -13l-57 -141
q-5 -6 -14 -1q-37 23 -71 19q-57 -4 -57 -85v-249q0 -10 -10 -10z" />
    <glyph glyph-name="Sacute" unicode="&#x15a;" horiz-adv-x="605" 
d="M300 -12q-80 0 -157 28.5t-117 68.5q-9 8 -1 16l90 106q7 8 14 1q77 -68 173 -68q46 0 71 17.5t25 46.5q0 23 -19 37t-67 20l-36 5q-227 32 -227 214q0 96 69 154t184 58q144 0 243 -75q8 -6 2 -15l-75 -109q-6 -8 -14 -3q-77 51 -153 51q-36 0 -55.5 -15.5t-19.5 -41.5
q0 -23 20 -37t67 -20l36 -5q113 -16 169 -68.5t56 -147.5q0 -98 -72.5 -158t-205.5 -60zM343 747h-115q-4 0 -5.5 3t1.5 7l102 122q8 10 18 10h142q5 0 6.5 -3t-1.5 -7l-128 -123q-9 -9 -20 -9z" />
    <glyph glyph-name="sacute" unicode="&#x15b;" horiz-adv-x="512" 
d="M297 546h-116q-10 0 -5 10l80 136q6 10 17 10h139q5 0 6.5 -3t-1.5 -7l-103 -136q-8 -10 -17 -10zM255 -12q-143 0 -232 75q-7 7 -1 14l71 85q6 6 14 2q79 -52 158 -52q62 0 62 35q0 14 -12.5 21t-48.5 11l-54 5q-168 19 -168 155q0 73 56 116.5t154 43.5q128 0 210 -61
q7 -6 2 -15l-63 -80q-6 -7 -15 -3q-62 38 -136 38q-51 0 -51 -30q0 -13 11.5 -20t44.5 -10l54 -6q92 -9 133 -49t40 -105q-1 -78 -61.5 -124t-167.5 -46z" />
    <glyph glyph-name="Scircumflex" unicode="&#x15c;" horiz-adv-x="605" 
d="M300 -12q-80 0 -157 28.5t-117 68.5q-9 8 -1 16l90 106q7 8 14 1q77 -68 173 -68q46 0 71 17.5t25 46.5q0 23 -19 37t-67 20l-36 5q-227 32 -227 214q0 96 69 154t184 58q144 0 243 -75q8 -6 2 -15l-75 -109q-6 -8 -14 -3q-77 51 -153 51q-36 0 -55.5 -15.5t-19.5 -41.5
q0 -23 20 -37t67 -20l36 -5q113 -16 169 -68.5t56 -147.5q0 -98 -72.5 -158t-205.5 -60zM474 741h-95q-13 0 -23 10l-48 50h-2l-49 -50q-10 -10 -23 -10h-95q-5 0 -6 3t2 7l108 137q7 10 19 10h90q12 0 19 -10l108 -137q3 -4 1.5 -7t-6.5 -3z" />
    <glyph glyph-name="scircumflex" unicode="&#x15d;" horiz-adv-x="512" 
d="M428 544h-95q-13 0 -23 10l-49 50h-2l-48 -50q-10 -10 -23 -10h-95q-5 0 -6.5 3t1.5 7l109 137q7 10 18 10h91q11 0 18 -10l109 -137q3 -4 1.5 -7t-6.5 -3zM255 -12q-143 0 -232 75q-7 7 -1 14l71 85q6 6 14 2q79 -52 158 -52q62 0 62 35q0 14 -12.5 21t-48.5 11l-54 5
q-168 19 -168 155q0 73 56 116.5t154 43.5q128 0 210 -61q7 -6 2 -15l-63 -80q-6 -7 -15 -3q-62 38 -136 38q-51 0 -51 -30q0 -13 11.5 -20t44.5 -10l54 -6q92 -9 133 -49t40 -105q-1 -78 -61.5 -124t-167.5 -46z" />
    <glyph glyph-name="Scedilla" unicode="&#x15e;" horiz-adv-x="605" 
d="M314 -166h-115q-10 0 -7 10l58 146q-71 10 -130.5 35.5t-93.5 59.5q-9 8 -1 16l90 106q7 8 14 1q77 -68 173 -68q46 0 71 17.5t25 46.5q0 23 -19 37t-67 20l-36 5q-227 32 -227 214q0 96 69 154t184 58q144 0 243 -75q8 -6 2 -15l-75 -109q-6 -8 -14 -3q-77 51 -153 51
q-36 0 -55.5 -15.5t-19.5 -41.5q0 -23 20 -37t67 -20l36 -5q113 -16 169 -68.5t56 -147.5q0 -81 -53 -138t-151 -75l-44 -149q-3 -10 -16 -10z" />
    <glyph glyph-name="scedilla" unicode="&#x15f;" horiz-adv-x="512" 
d="M267 -166h-115q-10 0 -7 10l59 147q-108 12 -181 72q-7 7 -1 14l71 85q6 6 14 2q79 -52 158 -52q62 0 62 35q0 14 -12.5 21t-48.5 11l-54 5q-168 19 -168 155q0 73 56 116.5t154 43.5q128 0 210 -61q7 -6 2 -15l-63 -80q-6 -7 -15 -3q-62 38 -136 38q-51 0 -51 -30
q0 -13 11.5 -20t44.5 -10l54 -6q92 -9 133 -49t40 -105q-1 -62 -41 -105t-115 -59l-45 -150q-3 -10 -16 -10z" />
    <glyph glyph-name="Scaron" unicode="&#x160;" horiz-adv-x="605" 
d="M300 -12q-80 0 -157 28.5t-117 68.5q-9 8 -1 16l90 106q7 8 14 1q77 -68 173 -68q46 0 71 17.5t25 46.5q0 23 -19 37t-67 20l-36 5q-227 32 -227 214q0 96 69 154t184 58q144 0 243 -75q8 -6 2 -15l-75 -109q-6 -8 -14 -3q-77 51 -153 51q-36 0 -55.5 -15.5t-19.5 -41.5
q0 -23 20 -37t67 -20l36 -5q113 -16 169 -68.5t56 -147.5q0 -98 -72.5 -158t-205.5 -60zM348 736h-90q-12 0 -19 10l-108 136q-3 4 -2 7t6 3h95q13 0 23 -10l49 -49h2l48 49q10 10 23 10h95q5 0 6.5 -3t-1.5 -7l-108 -136q-7 -10 -19 -10z" />
    <glyph glyph-name="scaron" unicode="&#x161;" horiz-adv-x="512" 
d="M298 541h-91q-11 0 -18 10l-109 137q-3 4 -1.5 7t6.5 3h95q13 0 23 -10l48 -49h2l49 49q10 10 23 10h95q5 0 6.5 -3t-1.5 -7l-109 -137q-7 -10 -18 -10zM255 -12q-143 0 -232 75q-7 7 -1 14l71 85q6 6 14 2q79 -52 158 -52q62 0 62 35q0 14 -12.5 21t-48.5 11l-54 5
q-168 19 -168 155q0 73 56 116.5t154 43.5q128 0 210 -61q7 -6 2 -15l-63 -80q-6 -7 -15 -3q-62 38 -136 38q-51 0 -51 -30q0 -13 11.5 -20t44.5 -10l54 -6q92 -9 133 -49t40 -105q-1 -78 -61.5 -124t-167.5 -46z" />
    <glyph glyph-name="Tcommaaccent" unicode="&#x162;" horiz-adv-x="566" 
d="M224 -248q-11 0 -11 13v179q0 10 10 10h120q10 0 10 -10v-89q0 -14 -9 -20l-103 -75q-11 -8 -17 -8zM361 0h-156h-3q-2 0 -5 3q-2 2 -2 4v3v508q0 4 -5 6h-1h-167h-3q-2 0 -4 2l-1 1q0 1 -1 1q-1 2 -1 6v136q0 8 7 10h3h522q4 0 7 -3q1 -1 1 -2q2 -2 2 -5v-136
q0 -5 -3 -8q-2 -2 -5 -2h-2h-167q-3 0 -4 -1l-2 -2v-3v-508v-3q-1 -3 -5 -6q-1 -1 -5 -1z" />
    <glyph glyph-name="tcommaaccent" unicode="&#x163;" horiz-adv-x="341" 
d="M137 -248q-11 0 -11 13v179q0 10 10 10h120q10 0 10 -10v-89q0 -14 -9 -20l-103 -75q-11 -8 -17 -8zM299 -6h-56q-96 0 -136.5 42.5t-40.5 141.5v183q0 6 -6 6h-28q-10 0 -10 10v100q0 10 10 10h28q6 0 6 6v127q0 10 10 10h146q10 0 10 -10v-127q0 -6 6 -6h61
q10 0 10 -10v-100q0 -10 -10 -10h-61q-6 0 -6 -6v-176q0 -29 10 -40t35 -11h22q10 0 10 -10v-120q0 -10 -10 -10z" />
    <glyph glyph-name="Tcaron" unicode="&#x164;" horiz-adv-x="566" 
d="M328 736h-90q-12 0 -19 10l-108 136q-3 4 -2 7t6 3h95q13 0 23 -10l49 -49h2l48 49q10 10 23 10h95q5 0 6.5 -3t-1.5 -7l-108 -136q-7 -10 -19 -10zM361 0h-156h-3q-2 0 -5 3q-2 2 -2 4v3v508q0 4 -5 6h-1h-167h-3q-2 0 -4 2l-1 1q0 1 -1 1q-1 2 -1 6v136q0 8 7 10h3h522
q4 0 7 -3q1 -1 1 -2q2 -2 2 -5v-136q0 -5 -3 -8q-2 -2 -5 -2h-2h-167q-3 0 -4 -1l-2 -2v-3v-508v-3q-1 -3 -5 -6q-1 -1 -5 -1z" />
    <glyph glyph-name="tcaron" unicode="&#x165;" horiz-adv-x="365" 
d="M330 472q-11 0 -11 13v185q0 10 10 10h109q10 0 10 -10v-94q0 -13 -9 -21l-92 -75q-9 -8 -17 -8zM299 -6h-56q-96 0 -136.5 42.5t-40.5 141.5v183q0 6 -6 6h-28q-10 0 -10 10v100q0 10 10 10h28q6 0 6 6v127q0 10 10 10h146q10 0 10 -10v-127q0 -6 6 -6h61q10 0 10 -10
v-100q0 -10 -10 -10h-61q-6 0 -6 -6v-176q0 -29 10 -40t35 -11h22q10 0 10 -10v-120q0 -10 -10 -10z" />
    <glyph glyph-name="Tbar" unicode="&#x166;" horiz-adv-x="566" 
d="M361 0h-156q-10 0 -10 10v277q0 6 -6 6h-78q-10 0 -10 10v104q0 10 10 10h78q6 0 6 6v95q0 6 -6 6h-167q-10 0 -10 10v136q0 10 10 10h522q10 0 10 -10v-136q0 -10 -10 -10h-167q-6 0 -6 -6v-95q0 -6 6 -6h78q10 0 10 -10v-104q0 -10 -10 -10h-78q-6 0 -6 -6v-277
q0 -10 -10 -10z" />
    <glyph glyph-name="tbar" unicode="&#x167;" horiz-adv-x="341" 
d="M232 222v-37q0 -29 10 -40t35 -11h22q10 0 10 -10v-120q0 -10 -10 -10h-56q-96 0 -136.5 42.5t-40.5 141.5v44q0 6 -6 6h-19q-10 0 -10 10v72q0 10 10 10h19q6 0 6 6v35q0 6 -6 6h-28q-10 0 -10 10v100q0 10 10 10h28q6 0 6 6v127q0 10 10 10h146q10 0 10 -10v-127
q0 -6 6 -6h61q10 0 10 -10v-100q0 -10 -10 -10h-61q-6 0 -6 -6v-35q0 -6 6 -6h47q10 0 10 -10v-72q0 -10 -10 -10h-47q-6 0 -6 -6z" />
    <glyph glyph-name="Utilde" unicode="&#x168;" horiz-adv-x="647" 
d="M392 740q-37 0 -83 23q-36 18 -60 18q-33 0 -76 -33q-4 -3 -7 -1.5t-3 5.5v81q0 12 9 22q37 37 81 37q36 0 84 -24q38 -17 60 -17q33 0 75 32q11 7 11 -3v-81q0 -13 -10 -22q-37 -37 -81 -37zM324 -12q-126 0 -198.5 71t-72.5 204v407q0 10 10 10h156q10 0 10 -10v-418
q0 -50 26 -78.5t69 -28.5q44 0 69 28t25 79v418q0 10 10 10h156q10 0 10 -10v-407q0 -133 -73 -204t-197 -71z" />
    <glyph glyph-name="utilde" unicode="&#x169;" horiz-adv-x="555" 
d="M492 0h-148q-10 0 -10 10v35h-1q-41 -57 -124 -57q-80 0 -120 49t-40 133v307q0 10 10 10h148q10 0 10 -10v-278q0 -33 15 -52t44 -19q58 0 58 71v278q0 10 10 10h148q10 0 10 -10v-467q0 -10 -10 -10zM346 545q-37 0 -83 23q-36 18 -60 18q-32 0 -76 -32q-4 -3 -7 -2
t-3 5v81q0 13 9 22q37 37 81 37q38 0 84 -23q36 -18 60 -18q34 0 75 33q11 7 11 -4v-81q0 -13 -10 -22q-37 -37 -81 -37z" />
    <glyph glyph-name="Umacron" unicode="&#x16a;" horiz-adv-x="647" 
d="M474 761h-301q-10 0 -10 10v90q0 10 10 10h301q10 0 10 -10v-90q0 -10 -10 -10zM324 -12q-126 0 -198.5 71t-72.5 204v407q0 10 10 10h156q10 0 10 -10v-418q0 -50 26 -78.5t69 -28.5q44 0 69 28t25 79v418q0 10 10 10h156q10 0 10 -10v-407q0 -133 -73 -204t-197 -71z
" />
    <glyph glyph-name="umacron" unicode="&#x16b;" horiz-adv-x="555" 
d="M492 0h-148q-10 0 -10 10v35h-1q-41 -57 -124 -57q-80 0 -120 49t-40 133v307q0 10 10 10h148q10 0 10 -10v-278q0 -33 15 -52t44 -19q58 0 58 71v278q0 10 10 10h148q10 0 10 -10v-467q0 -10 -10 -10zM428 562h-301q-10 0 -10 10v91q0 10 10 10h301q10 0 10 -10v-91
q0 -10 -10 -10z" />
    <glyph glyph-name="Ubreve" unicode="&#x16c;" horiz-adv-x="647" 
d="M323 734q-68 0 -113 40.5t-47 100.5q0 10 12 10h65q10 0 14 -10q18 -40 69 -40q52 0 70 40q4 10 14 10h65q12 0 12 -10q-2 -60 -47 -100.5t-114 -40.5zM324 -12q-126 0 -198.5 71t-72.5 204v407q0 10 10 10h156q10 0 10 -10v-418q0 -50 26 -78.5t69 -28.5q44 0 69 28
t25 79v418q0 10 10 10h156q10 0 10 -10v-407q0 -133 -73 -204t-197 -71z" />
    <glyph glyph-name="ubreve" unicode="&#x16d;" horiz-adv-x="555" 
d="M492 0h-148q-10 0 -10 10v35h-1q-41 -57 -124 -57q-80 0 -120 49t-40 133v307q0 10 10 10h148q10 0 10 -10v-278q0 -33 15 -52t44 -19q58 0 58 71v278q0 10 10 10h148q10 0 10 -10v-467q0 -10 -10 -10zM277 538q-68 0 -113 40.5t-47 100.5q0 11 12 11h65q10 0 14 -11
q18 -40 69 -40q52 0 70 40q4 11 14 11h65q12 0 12 -11q-2 -60 -47.5 -100.5t-113.5 -40.5z" />
    <glyph glyph-name="Uring" unicode="&#x16e;" horiz-adv-x="647" 
d="M324 -12q-126 0 -198.5 71t-72.5 204v407q0 10 10 10h156q10 0 10 -10v-418q0 -50 26 -78.5t69 -28.5q44 0 69 28t25 79v418q0 10 10 10h156q10 0 10 -10v-407q0 -133 -73 -204t-197 -71zM323 704q-49 0 -81.5 32.5t-32.5 81.5t32.5 81t81.5 32q50 0 82.5 -32t32.5 -81
t-32.5 -81.5t-82.5 -32.5zM323 773q19 0 31.5 13t12.5 32t-12.5 31.5t-31.5 12.5q-18 0 -30.5 -12.5t-12.5 -31.5t12.5 -32t30.5 -13z" />
    <glyph glyph-name="uring" unicode="&#x16f;" horiz-adv-x="555" 
d="M277 518q-49 0 -81.5 32.5t-32.5 81.5t32.5 81.5t81.5 32.5q50 0 82.5 -32.5t32.5 -81.5t-32.5 -81.5t-82.5 -32.5zM277 587q19 0 31.5 13t12.5 32t-12.5 32t-31.5 13q-18 0 -30.5 -13t-12.5 -32t12.5 -32t30.5 -13zM492 0h-148q-10 0 -10 10v35h-1q-41 -57 -124 -57
q-80 0 -120 49t-40 133v307q0 10 10 10h148q10 0 10 -10v-278q0 -33 15 -52t44 -19q58 0 58 71v278q0 10 10 10h148q10 0 10 -10v-467q0 -10 -10 -10z" />
    <glyph glyph-name="Uhungarumlaut" unicode="&#x170;" horiz-adv-x="647" 
d="M324 -12q-126 0 -198.5 71t-72.5 204v407q0 10 10 10h156q10 0 10 -10v-418q0 -50 26 -78.5t69 -28.5q44 0 69 28t25 79v418q0 10 10 10h156q10 0 10 -10v-407q0 -133 -73 -204t-197 -71zM452 748h-97q-11 0 -5 10l74 118q6 10 17 10h114q11 0 5 -10l-89 -118
q-6 -10 -19 -10zM268 748h-98q-11 0 -5 10l75 118q6 10 17 10h114q11 0 5 -10l-89 -118q-7 -10 -19 -10z" />
    <glyph glyph-name="uhungarumlaut" unicode="&#x171;" horiz-adv-x="555" 
d="M492 0h-148q-10 0 -10 10v35h-1q-41 -57 -124 -57q-80 0 -120 49t-40 133v307q0 10 10 10h148q10 0 10 -10v-278q0 -33 15 -52t44 -19q58 0 58 71v278q0 10 10 10h148q10 0 10 -10v-467q0 -10 -10 -10zM416 543h-98q-11 0 -6 10l69 137q5 10 16 10h114q5 0 6.5 -3
t-0.5 -7l-84 -137q-6 -10 -17 -10zM231 543h-98q-11 0 -6 10l70 137q5 10 16 10h114q5 0 6.5 -3t-0.5 -7l-84 -137q-7 -10 -18 -10z" />
    <glyph glyph-name="Uogonek" unicode="&#x172;" horiz-adv-x="647" 
d="M335 -192q-51 0 -80.5 26.5t-29.5 70.5q0 47 41 88q-101 15 -157 84t-56 186v407q0 10 10 10h156q10 0 10 -10v-418q0 -50 26 -78.5t69 -28.5q44 0 69 28t25 79v418q0 10 10 10h156q10 0 10 -10v-407q0 -110 -50 -177.5t-139 -88.5q-59 -40 -59 -63q0 -16 17 -16
q10 0 24 8q9 4 13 -3l38 -71q5 -8 -4 -13q-45 -31 -99 -31z" />
    <glyph glyph-name="uogonek" unicode="&#x173;" horiz-adv-x="556" 
d="M395 -192q-51 0 -80.5 26.5t-29.5 70.5q0 56 62 95h-4q-9 0 -9 10v35h-1q-41 -57 -124 -57q-80 0 -120 49t-40 133v307q0 10 10 10h148q10 0 10 -10v-278q0 -33 15 -52t44 -19q58 0 58 71v278q0 10 10 10h148q10 0 10 -10v-467q0 -6 -7 -10q-89 -37 -89 -66q0 -16 17 -16
q10 0 24 8q9 4 13 -3l38 -71q5 -8 -4 -13q-45 -31 -99 -31z" />
    <glyph glyph-name="Wcircumflex" unicode="&#x174;" horiz-adv-x="907" 
d="M700 0h-125q-10 0 -13 10l-107 380h-2l-108 -380q-3 -10 -13 -10h-125q-10 0 -13 10l-185 660q-2 10 8 10h164q11 0 13 -10l88 -396h2l106 396q3 10 13 10h103q10 0 13 -10l109 -396h2l85 396q2 10 12 10h164q10 0 7 -10l-184 -660q-3 -10 -14 -10zM620 741h-95
q-13 0 -23 10l-48 50h-2l-49 -50q-10 -10 -23 -10h-95q-5 0 -6 3t2 7l108 137q7 10 19 10h90q12 0 19 -10l108 -137q3 -4 1.5 -7t-6.5 -3z" />
    <glyph glyph-name="wcircumflex" unicode="&#x175;" horiz-adv-x="773" 
d="M553 544h-95q-13 0 -23 10l-49 50h-2l-48 -50q-10 -10 -23 -10h-95q-5 0 -6.5 3t1.5 7l109 137q7 10 18 10h91q11 0 18 -10l109 -137q3 -4 1.5 -7t-6.5 -3zM591 0h-116q-9 0 -12 10l-75 250h-2l-76 -250q-3 -10 -12 -10h-116q-9 0 -12 10l-158 466q-4 11 8 11h149
q11 0 14 -10l67 -257h2l75 257q3 10 13 10h95q11 0 14 -10l75 -257h2l63 257q3 10 15 10h149q11 0 7 -11l-157 -466q-3 -10 -12 -10z" />
    <glyph glyph-name="Ycircumflex" unicode="&#x176;" horiz-adv-x="602" 
d="M379 0h-156q-10 0 -10 10v253l-206 406q-4 11 8 11h157q10 0 16 -10l114 -232h3l112 232q4 10 16 10h154q12 0 8 -11l-206 -406v-253q0 -10 -10 -10zM467 741h-95q-13 0 -23 10l-48 50h-2l-49 -50q-10 -10 -23 -10h-95q-4 0 -5.5 3t1.5 7l108 137q7 10 19 10h90
q12 0 19 -10l108 -137q3 -4 1.5 -7t-6.5 -3z" />
    <glyph glyph-name="ycircumflex" unicode="&#x177;" horiz-adv-x="531" 
d="M133 -180h-37q-10 0 -10 10v118q0 10 10 10h25q47 0 60 41l11 31l-183 447q-4 10 7 10h157q9 0 12 -10l84 -244h2l78 244q3 10 13 10h153q11 0 7 -10l-211 -532q-28 -72 -67 -98.5t-111 -26.5zM432 544h-95q-13 0 -23 10l-49 50h-2l-48 -50q-10 -10 -23 -10h-95
q-5 0 -6.5 3t1.5 7l109 137q7 10 18 10h91q11 0 18 -10l109 -137q3 -4 1.5 -7t-6.5 -3z" />
    <glyph glyph-name="Ydieresis" unicode="&#x178;" horiz-adv-x="602" 
d="M379 0h-156q-10 0 -10 10v253l-206 406q-4 11 8 11h157q10 0 16 -10l114 -232h3l112 232q4 10 16 10h154q12 0 8 -11l-206 -406v-253q0 -10 -10 -10zM456 750h-107q-10 0 -10 10v110q0 10 10 10h107q10 0 10 -10v-110q0 -10 -10 -10zM250 750h-107q-10 0 -10 10v110
q0 10 10 10h107q10 0 10 -10v-110q0 -10 -10 -10z" />
    <glyph glyph-name="Zacute" unicode="&#x179;" 
d="M516 0h-471q-10 0 -10 10v134q0 6 3 10l282 367v3h-264q-10 0 -10 10v136q0 10 10 10h460q10 0 10 -10v-134q0 -6 -3 -10l-282 -367v-3h275q10 0 10 -10v-136q0 -10 -10 -10zM315 747h-115q-4 0 -5.5 3t1.5 7l102 122q8 10 18 10h142q5 0 6.5 -3t-1.5 -7l-128 -123
q-9 -9 -20 -9z" />
    <glyph glyph-name="zacute" unicode="&#x17a;" horiz-adv-x="494" 
d="M290 546h-116q-10 0 -5 10l80 136q6 10 17 10h139q5 0 6.5 -3t-1.5 -7l-103 -136q-7 -10 -17 -10zM446 0h-396q-10 0 -10 10v108q0 6 3 10l215 223v3h-197q-10 0 -10 10v113q0 10 10 10h385q10 0 10 -10v-113q0 -6 -3 -10l-214 -218v-3h207q10 0 10 -10v-113
q0 -10 -10 -10z" />
    <glyph glyph-name="Zdotaccent" unicode="&#x17b;" 
d="M349 750h-138q-10 0 -10 10v110q0 10 10 10h138q10 0 10 -10v-110q0 -10 -10 -10zM516 0h-471q-10 0 -10 10v134q0 6 3 10l282 367v3h-264q-10 0 -10 10v136q0 10 10 10h460q10 0 10 -10v-134q0 -6 -3 -10l-282 -367v-3h275q10 0 10 -10v-136q0 -10 -10 -10z" />
    <glyph glyph-name="zdotaccent" unicode="&#x17c;" horiz-adv-x="494" 
d="M446 0h-396q-10 0 -10 10v108q0 6 3 10l215 223v3h-197q-10 0 -10 10v113q0 10 10 10h385q10 0 10 -10v-113q0 -6 -3 -10l-214 -218v-3h207q10 0 10 -10v-113q0 -10 -10 -10zM318 550h-138q-10 0 -10 10v110q0 10 10 10h138q10 0 10 -10v-110q0 -10 -10 -10z" />
    <glyph glyph-name="Zcaron" unicode="&#x17d;" 
d="M326 736h-90q-12 0 -19 10l-108 136q-3 4 -2 7t6 3h95q13 0 23 -10l49 -49h2l48 49q10 10 23 10h95q5 0 6.5 -3t-1.5 -7l-108 -136q-7 -10 -19 -10zM516 0h-471q-10 0 -10 10v134q0 6 3 10l282 367v3h-264q-10 0 -10 10v136q0 10 10 10h460q10 0 10 -10v-134q0 -6 -3 -10
l-282 -367v-3h275q10 0 10 -10v-136q0 -10 -10 -10z" />
    <glyph glyph-name="zcaron" unicode="&#x17e;" horiz-adv-x="494" 
d="M296 541h-91q-11 0 -18 10l-109 137q-3 4 -1.5 7t6.5 3h95q13 0 23 -10l48 -49h2l49 49q10 10 23 10h95q5 0 6.5 -3t-1.5 -7l-109 -137q-7 -10 -18 -10zM446 0h-396q-10 0 -10 10v108q0 6 3 10l215 223v3h-197q-10 0 -10 10v113q0 10 10 10h385q10 0 10 -10v-113
q0 -6 -3 -10l-214 -218v-3h207q10 0 10 -10v-113q0 -10 -10 -10z" />
    <glyph glyph-name="florin" unicode="&#x192;" 
d="M457 302h-87l-47 -302q-15 -100 -62.5 -140t-141.5 -40h-36q-10 0 -10 10v118q0 10 10 10h20q28 0 41 11t18 39l45 294h-58q-10 0 -10 10v103q0 10 10 10h77l12 76q15 98 62.5 138.5t140.5 40.5h37q10 0 10 -10v-118q0 -10 -10 -10h-21q-26 0 -39.5 -11.5t-17.5 -38.5
l-11 -67h68q10 0 10 -10v-103q0 -10 -10 -10z" />
    <glyph glyph-name="Aringacute" unicode="&#x1fa;" horiz-adv-x="674" 
d="M388 770h-114q-5 0 -6.5 3.5t2.5 6.5l102 99q10 10 22 10h143q5 0 6 -3.5t-3 -6.5l-129 -100q-12 -9 -23 -9zM654 0h-163q-9 0 -12 10l-33 105h-219l-33 -105q-3 -10 -10 -10h-165q-12 0 -9 10l201 563q3 10 14 10h9q-9 21 -9 48q0 49 32.5 81t82.5 32q49 0 82 -32
t33 -81q0 -25 -10 -48h8q11 0 14 -10l197 -563q1 -4 -2 -7t-8 -3zM340 586q19 0 31 12.5t12 32.5t-12 32.5t-31 12.5t-31.5 -13t-12.5 -32t12.5 -32t31.5 -13zM337 461l-64 -200h128l-61 200h-3z" />
    <glyph glyph-name="aringacute" unicode="&#x1fb;" horiz-adv-x="532" 
d="M326 770h-115q-5 0 -6 3t2 7l97 99q8 10 20 10h144q5 0 6.5 -3t-2.5 -7l-124 -99q-11 -10 -22 -10zM472 0h-138q-10 0 -10 10v28h-1q-43 -50 -131 -50q-68 0 -113 38t-45 112q0 79 56 119.5t151 40.5h77q6 0 6 6v13q0 28 -19.5 39.5t-74.5 11.5q-65 0 -105 -28
q-9 -5 -13 3l-52 92q-4 10 3 16q70 48 189 48q125 0 177.5 -43t52.5 -139v-307q0 -10 -10 -10zM248 108q76 0 76 52v30q0 6 -6 6h-59q-68 0 -68 -46q0 -42 57 -42zM267 518q-49 0 -81.5 32.5t-32.5 81.5t32.5 81.5t81.5 32.5q50 0 82.5 -32.5t32.5 -81.5t-32.5 -81.5
t-82.5 -32.5zM267 587q19 0 31.5 13t12.5 32t-12.5 32t-31.5 13q-18 0 -30.5 -13t-12.5 -32t12.5 -32t30.5 -13z" />
    <glyph glyph-name="AEacute" unicode="&#x1fc;" horiz-adv-x="931" 
d="M514 747h-115q-5 0 -6 3t2 7l102 122q8 10 18 10h142q5 0 6.5 -3t-1.5 -7l-128 -123q-9 -9 -20 -9zM884 0h-445q-10 0 -10 10v99q0 6 -6 6h-178l-45 -105q-4 -10 -14 -10h-168q-12 0 -7 10l303 660q5 10 14 10h556q10 0 10 -10v-129q0 -10 -10 -10h-273q-6 0 -6 -6v-103
q0 -6 6 -6h224q10 0 10 -10v-126q0 -10 -10 -10h-224q-6 0 -6 -6v-109q0 -6 6 -6h273q10 0 10 -10v-129q0 -10 -10 -10zM426 531l-117 -270h114q6 0 6 6v264h-3z" />
    <glyph glyph-name="aeacute" unicode="&#x1fd;" horiz-adv-x="819" 
d="M458 546h-116q-10 0 -5 10l80 136q6 10 17 10h139q5 0 6.5 -3t-1.5 -7l-103 -136q-8 -10 -17 -10zM562 -12q-51 0 -95 18.5t-70 50.5h-1q-53 -69 -183 -69q-85 0 -132 38t-47 112q0 79 56 119.5t151 40.5h77q6 0 6 6v13q0 28 -19.5 39.5t-74.5 11.5q-65 0 -105 -28
q-9 -5 -13 3l-52 92q-4 10 3 16q70 48 189 48q103 0 164 -43h2q54 43 134 43q86 0 142 -36.5t78 -104.5q15 -45 15 -152q0 -10 -10 -10h-289q-6 0 -6 -6q0 -12 4 -20q17 -53 94 -53q59 0 109 39q8 8 14 0l72 -73q7 -7 -1 -15q-83 -80 -212 -80zM620 298q6 0 6 6q0 17 -5 30
q-13 44 -67 44t-68 -44q-4 -11 -4 -30q0 -6 6 -6h132zM248 108q76 0 76 52v30q0 6 -6 6h-59q-68 0 -68 -46q0 -42 57 -42z" />
    <glyph glyph-name="Oslashacute" unicode="&#x1fe;" horiz-adv-x="628" 
d="M129 -30h-102q-11 0 -5 10l70 109q-21 29 -33 66q-20 65 -20 185t20 185q26 81 94 124t161 43q80 0 142 -32l26 40q7 10 17 10h101q4 0 6 -3t0 -7l-70 -110q22 -32 33 -65q20 -61 20 -185t-20 -185q-26 -81 -94 -124t-161 -43q-80 0 -142 32l-26 -40q-7 -10 -17 -10z
M314 145q68 0 87 60q10 29 10 135t-10 135q-19 60 -87 60t-87 -60q-10 -29 -10 -135t10 -135q19 -60 87 -60zM357 747h-115q-4 0 -5.5 3t1.5 7l102 122q8 10 18 10h142q5 0 6.5 -3t-1.5 -7l-128 -123q-9 -9 -20 -9z" />
    <glyph glyph-name="oslashacute" unicode="&#x1ff;" horiz-adv-x="538" 
d="M269 -12q-67 0 -118 24l-24 -32q-7 -10 -19 -10h-82q-4 0 -5.5 3t1.5 7l62 82q-26 31 -37 67q-15 49 -15 114q0 66 15 115q22 68 81 104.5t141 36.5q67 0 118 -24l24 32q7 10 19 10h81q11 0 5 -10l-62 -83q22 -25 37 -66q15 -49 15 -115q0 -65 -15 -114
q-23 -69 -81.5 -105t-140.5 -36zM269 126q45 0 60 41q7 25 7 76q0 52 -7 77q-15 41 -60 41t-60 -41q-7 -25 -7 -77q0 -51 7 -76q15 -41 60 -41zM317 546h-116q-10 0 -5 10l80 136q6 10 17 10h139q5 0 6.5 -3t-1.5 -7l-103 -136q-8 -10 -17 -10z" />
    <glyph glyph-name="Scommaaccent" unicode="&#x218;" horiz-adv-x="605" 
d="M243 -248q-11 0 -11 13v179q0 10 10 10h120q10 0 10 -10v-89q0 -14 -9 -20l-103 -75q-11 -8 -17 -8zM300 -12q-80 0 -157 28.5t-117 68.5q-9 8 -1 16l90 106q7 8 14 1q77 -68 173 -68q46 0 71 17.5t25 46.5q0 23 -19 37t-67 20l-36 5q-227 32 -227 214q0 96 69 154
t184 58q144 0 243 -75q8 -6 2 -15l-75 -109q-6 -8 -14 -3q-77 51 -153 51q-36 0 -55.5 -15.5t-19.5 -41.5q0 -23 20 -37t67 -20l36 -5q113 -16 169 -68.5t56 -147.5q0 -98 -72.5 -158t-205.5 -60z" />
    <glyph glyph-name="scommaaccent" unicode="&#x219;" horiz-adv-x="512" 
d="M204 -248q-11 0 -11 13v179q0 10 10 10h120q10 0 10 -10v-89q0 -14 -9 -20l-103 -75q-11 -8 -17 -8zM255 -12q-143 0 -232 75q-7 7 -1 14l71 85q6 6 14 2q79 -52 158 -52q62 0 62 35q0 14 -12.5 21t-48.5 11l-54 5q-168 19 -168 155q0 73 56 116.5t154 43.5
q128 0 210 -61q7 -6 2 -15l-63 -80q-6 -7 -15 -3q-62 38 -136 38q-51 0 -51 -30q0 -13 11.5 -20t44.5 -10l54 -6q92 -9 133 -49t40 -105q-1 -78 -61.5 -124t-167.5 -46z" />
    <glyph glyph-name="uni021A" unicode="&#x21a;" horiz-adv-x="566" 
d="M224 -248q-11 0 -11 13v179q0 10 10 10h120q10 0 10 -10v-89q0 -14 -9 -20l-103 -75q-11 -8 -17 -8zM361 0h-156h-3q-2 0 -5 3q-2 2 -2 4v3v508q0 4 -5 6h-1h-167h-3q-2 0 -4 2l-1 1q0 1 -1 1q-1 2 -1 6v136q0 8 7 10h3h522q4 0 7 -3q1 -1 1 -2q2 -2 2 -5v-136
q0 -5 -3 -8q-2 -2 -5 -2h-2h-167q-3 0 -4 -1l-2 -2v-3v-508v-3q-1 -3 -5 -6q-1 -1 -5 -1z" />
    <glyph glyph-name="uni021B" unicode="&#x21b;" horiz-adv-x="341" 
d="M137 -248q-11 0 -11 13v179q0 10 10 10h120q10 0 10 -10v-89q0 -14 -9 -20l-103 -75q-11 -8 -17 -8zM299 -6h-56q-96 0 -136.5 42.5t-40.5 141.5v183q0 6 -6 6h-28q-10 0 -10 10v100q0 10 10 10h28q6 0 6 6v127q0 10 10 10h146q10 0 10 -10v-127q0 -6 6 -6h61
q10 0 10 -10v-100q0 -10 -10 -10h-61q-6 0 -6 -6v-176q0 -29 10 -40t35 -11h22q10 0 10 -10v-120q0 -10 -10 -10z" />
    <glyph glyph-name="dotlessj" unicode="&#x237;" horiz-adv-x="274" 
d="M22 -180h-38q-10 0 -10 10v118q0 10 10 10h15q31 0 42.5 11t11.5 44v464q0 10 10 10h148q10 0 10 -10v-464q0 -101 -50 -147t-149 -46z" />
    <glyph glyph-name="circumflex" unicode="&#x2c6;" horiz-adv-x="489" 
d="M412 544h-95q-13 0 -23 10l-49 50h-2l-48 -50q-10 -10 -23 -10h-95q-5 0 -6.5 3t1.5 7l109 137q7 10 18 10h91q11 0 18 -10l109 -137q3 -4 1.5 -7t-6.5 -3z" />
    <glyph glyph-name="caron" unicode="&#x2c7;" horiz-adv-x="489" 
d="M290 541h-91q-11 0 -18 10l-109 137q-3 4 -1.5 7t6.5 3h95q13 0 23 -10l48 -49h2l49 49q10 10 23 10h95q5 0 6.5 -3t-1.5 -7l-109 -137q-7 -10 -18 -10z" />
    <glyph glyph-name="uni02C9" unicode="&#x2c9;" horiz-adv-x="489" 
d="M395 761h-301q-10 0 -10 10v90q0 10 10 10h301q10 0 10 -10v-90q0 -10 -10 -10z" />
    <glyph glyph-name="breve" unicode="&#x2d8;" horiz-adv-x="489" 
d="M244 538q-68 0 -113 40.5t-47 100.5q0 11 12 11h65q10 0 14 -11q18 -40 69 -40q52 0 70 40q4 11 14 11h65q12 0 12 -11q-2 -60 -47.5 -100.5t-113.5 -40.5z" />
    <glyph glyph-name="dotaccent" unicode="&#x2d9;" horiz-adv-x="489" 
d="M313 550h-138q-10 0 -10 10v110q0 10 10 10h138q10 0 10 -10v-110q0 -10 -10 -10z" />
    <glyph glyph-name="ring" unicode="&#x2da;" horiz-adv-x="489" 
d="M244 518q-49 0 -81.5 32.5t-32.5 81.5t32.5 81.5t81.5 32.5q50 0 82.5 -32.5t32.5 -81.5t-32.5 -81.5t-82.5 -32.5zM244 587q19 0 31.5 13t12.5 32t-12.5 32t-31.5 13q-18 0 -30.5 -13t-12.5 -32t12.5 -32t30.5 -13z" />
    <glyph glyph-name="ogonek" unicode="&#x2db;" horiz-adv-x="489" 
d="M240 -192q-51 0 -80.5 26.5t-29.5 70.5q0 56 53 95q14 10 25 10h127q5 0 5 -4t-4 -6q-85 -39 -85 -66q0 -16 17 -16q10 0 24 8q9 4 13 -3l38 -71q5 -8 -4 -13q-45 -31 -99 -31z" />
    <glyph glyph-name="tilde" unicode="&#x2dc;" horiz-adv-x="489" 
d="M313 545q-37 0 -83 23q-36 18 -60 18q-32 0 -76 -32q-4 -3 -7 -2t-3 5v81q0 13 9 22q37 37 81 37q38 0 84 -23q36 -18 60 -18q34 0 75 33q11 7 11 -4v-81q0 -13 -10 -22q-37 -37 -81 -37z" />
    <glyph glyph-name="hungarumlaut" unicode="&#x2dd;" horiz-adv-x="489" 
d="M341 543h-98q-11 0 -6 10l69 137q5 10 16 10h114q4 0 6 -3t0 -7l-84 -137q-6 -10 -17 -10zM156 543h-98q-11 0 -6 10l70 137q5 10 16 10h114q4 0 6 -3t0 -7l-84 -137q-7 -10 -18 -10z" />
    <glyph glyph-name="Delta" unicode="&#x394;" horiz-adv-x="674" 
d="M656 0h-638q-11 0 -8 10l235 660q3 10 13 10h163q10 0 13 -10l230 -660q3 -10 -8 -10zM432 149q6 0 5 6l-97 318h-3l-100 -318q-1 -6 5 -6h190z" />
    <glyph glyph-name="Delta" unicode="&#x2206;" horiz-adv-x="674" 
d="M656 0h-638q-11 0 -8 10l235 660q3 10 13 10h163q10 0 13 -10l230 -660q3 -10 -8 -10zM432 149q6 0 5 6l-97 318h-3l-100 -318q-1 -6 5 -6h190z" />
    <glyph glyph-name="Omega" unicode="&#x3a9;" horiz-adv-x="639" 
d="M584 0h-223q-10 0 -10 10v117q0 11 9 15q34 17 46 57.5t12 140.5q0 103 -10 135q-22 60 -89 60q-68 0 -88 -60q-10 -27 -10 -135q0 -100 12 -140.5t46 -57.5q9 -4 9 -15v-117q0 -10 -10 -10h-223q-10 0 -10 10v123q0 10 10 10h49v1q-62 46 -62 196q0 123 21 183
q28 82 94.5 125.5t161.5 43.5t161.5 -43t95.5 -126q21 -60 21 -183q0 -149 -62 -196v-1h49q10 0 10 -10v-123q0 -10 -10 -10z" />
    <glyph glyph-name="Omega" unicode="&#x2126;" horiz-adv-x="639" 
d="M584 0h-223q-10 0 -10 10v117q0 11 9 15q34 17 46 57.5t12 140.5q0 103 -10 135q-22 60 -89 60q-68 0 -88 -60q-10 -27 -10 -135q0 -100 12 -140.5t46 -57.5q9 -4 9 -15v-117q0 -10 -10 -10h-223q-10 0 -10 10v123q0 10 10 10h49v1q-62 46 -62 196q0 123 21 183
q28 82 94.5 125.5t161.5 43.5t161.5 -43t95.5 -126q21 -60 21 -183q0 -149 -62 -196v-1h49q10 0 10 -10v-123q0 -10 -10 -10z" />
    <glyph glyph-name="pi" unicode="&#x3c0;" horiz-adv-x="601" 
d="M549 -6h-39q-86 0 -125 39.5t-39 128.5v175q0 6 -6 6h-84q-6 0 -6 -6v-327q0 -10 -10 -10h-148q-10 0 -10 10v327q0 6 -6 6h-41q-10 0 -10 10v124q0 10 10 10h524q10 0 10 -10v-124q0 -10 -10 -10h-42q-6 0 -6 -6v-162q0 -23 7.5 -32t25.5 -9h5q10 0 10 -10v-120
q0 -10 -10 -10z" />
    <glyph glyph-name="Wgrave" unicode="&#x1e80;" horiz-adv-x="907" 
d="M512 747h-115q-11 0 -20 9l-128 123q-3 4 -1.5 7t6.5 3h142q10 0 18 -10l102 -122q3 -4 1.5 -7t-5.5 -3zM700 0h-125q-10 0 -13 10l-107 380h-2l-108 -380q-3 -10 -13 -10h-125q-10 0 -13 10l-185 660q-2 10 8 10h164q11 0 13 -10l88 -396h2l106 396q3 10 13 10h103
q10 0 13 -10l109 -396h2l85 396q2 10 12 10h164q10 0 7 -10l-184 -660q-3 -10 -14 -10z" />
    <glyph glyph-name="wgrave" unicode="&#x1e81;" horiz-adv-x="773" 
d="M591 0h-116q-9 0 -12 10l-75 250h-2l-76 -250q-3 -10 -12 -10h-116q-9 0 -12 10l-158 466q-4 11 8 11h149q11 0 14 -10l67 -257h2l75 257q3 10 13 10h95q11 0 14 -10l75 -257h2l63 257q3 10 15 10h149q11 0 7 -11l-157 -466q-3 -10 -12 -10zM444 546h-116q-10 0 -17 10
l-103 136q-3 4 -1.5 7t6.5 3h139q11 0 17 -10l80 -136q5 -10 -5 -10z" />
    <glyph glyph-name="Wacute" unicode="&#x1e82;" horiz-adv-x="907" 
d="M515 747h-115q-4 0 -5.5 3t1.5 7l102 122q8 10 18 10h142q5 0 6.5 -3t-1.5 -7l-128 -123q-9 -9 -20 -9zM700 0h-125q-10 0 -13 10l-107 380h-2l-108 -380q-3 -10 -13 -10h-125q-10 0 -13 10l-185 660q-2 10 8 10h164q11 0 13 -10l88 -396h2l106 396q3 10 13 10h103
q10 0 13 -10l109 -396h2l85 396q2 10 12 10h164q10 0 7 -10l-184 -660q-3 -10 -14 -10z" />
    <glyph glyph-name="wacute" unicode="&#x1e83;" horiz-adv-x="773" 
d="M446 546h-116q-10 0 -5 10l80 136q6 10 17 10h139q5 0 6.5 -3t-1.5 -7l-103 -136q-8 -10 -17 -10zM591 0h-116q-9 0 -12 10l-75 250h-2l-76 -250q-3 -10 -12 -10h-116q-9 0 -12 10l-158 466q-4 11 8 11h149q11 0 14 -10l67 -257h2l75 257q3 10 13 10h95q11 0 14 -10
l75 -257h2l63 257q3 10 15 10h149q11 0 7 -11l-157 -466q-3 -10 -12 -10z" />
    <glyph glyph-name="Wdieresis" unicode="&#x1e84;" horiz-adv-x="907" 
d="M609 750h-107q-10 0 -10 10v110q0 10 10 10h107q10 0 10 -10v-110q0 -10 -10 -10zM403 750h-107q-10 0 -10 10v110q0 10 10 10h107q10 0 10 -10v-110q0 -10 -10 -10zM700 0h-125q-10 0 -13 10l-107 380h-2l-108 -380q-3 -10 -13 -10h-125q-10 0 -13 10l-185 660
q-2 10 8 10h164q11 0 13 -10l88 -396h2l106 396q3 10 13 10h103q10 0 13 -10l109 -396h2l85 396q2 10 12 10h164q10 0 7 -10l-184 -660q-3 -10 -14 -10z" />
    <glyph glyph-name="wdieresis" unicode="&#x1e85;" horiz-adv-x="773" 
d="M542 550h-108q-10 0 -10 10v110q0 10 10 10h108q10 0 10 -10v-110q0 -10 -10 -10zM337 550h-108q-10 0 -10 10v110q0 10 10 10h108q10 0 10 -10v-110q0 -10 -10 -10zM591 0h-116q-9 0 -12 10l-75 250h-2l-76 -250q-3 -10 -12 -10h-116q-9 0 -12 10l-158 466q-4 11 8 11
h149q11 0 14 -10l67 -257h2l75 257q3 10 13 10h95q11 0 14 -10l75 -257h2l63 257q3 10 15 10h149q11 0 7 -11l-157 -466q-3 -10 -12 -10z" />
    <glyph glyph-name="Ygrave" unicode="&#x1ef2;" horiz-adv-x="602" 
d="M379 0h-156q-10 0 -10 10v253l-206 406q-4 11 8 11h157q10 0 16 -10l114 -232h3l112 232q4 10 16 10h154q12 0 8 -11l-206 -406v-253q0 -10 -10 -10zM372 747h-115q-11 0 -20 9l-128 123q-3 4 -1.5 7t6.5 3h142q10 0 18 -10l102 -122q3 -4 1.5 -7t-5.5 -3z" />
    <glyph glyph-name="ygrave" unicode="&#x1ef3;" horiz-adv-x="531" 
d="M133 -180h-37q-10 0 -10 10v118q0 10 10 10h25q47 0 60 41l11 31l-183 447q-4 10 7 10h157q9 0 12 -10l84 -244h2l78 244q3 10 13 10h153q11 0 7 -10l-211 -532q-28 -72 -67 -98.5t-111 -26.5zM335 546h-116q-9 0 -17 10l-103 136q-3 4 -1.5 7t6.5 3h139q11 0 17 -10
l80 -136q5 -10 -5 -10z" />
    <glyph glyph-name="endash" unicode="&#x2013;" horiz-adv-x="551" 
d="M521 195h-491q-10 0 -10 10v120q0 10 10 10h491q10 0 10 -10v-120q0 -10 -10 -10z" />
    <glyph glyph-name="emdash" unicode="&#x2014;" horiz-adv-x="921" 
d="M891 195h-861q-10 0 -10 10v120q0 10 10 10h861q10 0 10 -10v-120q0 -10 -10 -10z" />
    <glyph glyph-name="quoteleft" unicode="&#x2018;" horiz-adv-x="239" 
d="M176 455h-113q-10 0 -10 10v116q0 15 9 21l96 72q9 8 17 8q11 0 11 -12v-205q0 -10 -10 -10z" />
    <glyph glyph-name="quoteright" unicode="&#x2019;" horiz-adv-x="239" 
d="M64 453q-11 0 -11 12v205q0 10 10 10h113q10 0 10 -10v-115q0 -16 -9 -22l-96 -72q-9 -8 -17 -8z" />
    <glyph glyph-name="quotesinglbase" unicode="&#x201a;" horiz-adv-x="239" 
d="M64 -89q-11 0 -11 11v205q0 10 10 10h113q10 0 10 -10v-115q0 -14 -9 -22l-96 -72q-10 -7 -17 -7z" />
    <glyph glyph-name="quotedblleft" unicode="&#x201c;" horiz-adv-x="437" 
d="M374 455h-113q-10 0 -10 10v116q0 15 9 21l96 72q9 8 17 8q11 0 11 -12v-205q0 -10 -10 -10zM176 455h-113q-10 0 -10 10v116q0 15 9 21l96 72q9 8 17 8q11 0 11 -12v-205q0 -10 -10 -10z" />
    <glyph glyph-name="quotedblright" unicode="&#x201d;" horiz-adv-x="437" 
d="M262 453q-11 0 -11 12v205q0 10 10 10h113q10 0 10 -10v-115q0 -16 -9 -22l-96 -72q-9 -8 -17 -8zM64 453q-11 0 -11 12v205q0 10 10 10h113q10 0 10 -10v-115q0 -16 -9 -22l-96 -72q-9 -8 -17 -8z" />
    <glyph glyph-name="quotedblbase" unicode="&#x201e;" horiz-adv-x="437" 
d="M262 -89q-11 0 -11 11v205q0 10 10 10h113q10 0 10 -10v-115q0 -14 -9 -22l-96 -72q-10 -7 -17 -7zM64 -89q-11 0 -11 11v205q0 10 10 10h113q10 0 10 -10v-115q0 -14 -9 -22l-96 -72q-10 -7 -17 -7z" />
    <glyph glyph-name="dagger" unicode="&#x2020;" horiz-adv-x="566" 
d="M356 -180h-146q-10 0 -10 10v486q0 6 -6 6h-144q-10 0 -10 10v129q0 10 10 10h144q6 0 6 6v193q0 10 10 10h146q10 0 10 -10v-193q0 -6 6 -6h144q10 0 10 -10v-129q0 -10 -10 -10h-144q-6 0 -6 -6v-486q0 -10 -10 -10z" />
    <glyph glyph-name="daggerdbl" unicode="&#x2021;" horiz-adv-x="566" 
d="M356 -180h-146q-10 0 -10 10v157q0 6 -6 6h-144q-10 0 -10 10v129q0 10 10 10h144q6 0 6 6v204q0 6 -6 6h-144q-10 0 -10 10v129q0 10 10 10h144q6 0 6 6v157q0 10 10 10h146q10 0 10 -10v-157q0 -6 6 -6h144q10 0 10 -10v-129q0 -10 -10 -10h-144q-6 0 -6 -6v-204
q0 -6 6 -6h144q10 0 10 -10v-129q0 -10 -10 -10h-144q-6 0 -6 -6v-157q0 -10 -10 -10z" />
    <glyph glyph-name="bullet" unicode="&#x2022;" horiz-adv-x="491" 
d="M246 147q-70 0 -116 45.5t-46 116.5q0 70 46 115.5t116 45.5t115.5 -45.5t45.5 -115.5t-45.5 -116t-115.5 -46z" />
    <glyph glyph-name="ellipsis" unicode="&#x2026;" horiz-adv-x="789" 
d="M727 0h-139q-10 0 -10 10v138q0 10 10 10h139q10 0 10 -10v-138q0 -10 -10 -10zM464 0h-139q-10 0 -10 10v138q0 10 10 10h139q10 0 10 -10v-138q0 -10 -10 -10zM201 0h-139q-10 0 -10 10v138q0 10 10 10h139q10 0 10 -10v-138q0 -10 -10 -10z" />
    <glyph glyph-name="perthousand" unicode="&#x2030;" horiz-adv-x="1186" 
d="M273 -12h-102q-10 0 -4 10l395 684q6 10 16 10h101q11 0 5 -10l-395 -684q-6 -10 -16 -10zM206 330q-51 0 -86.5 22.5t-48.5 62.5q-11 30 -11 94t11 94q13 40 48.5 62.5t86.5 22.5t86.5 -22.5t48.5 -62.5q11 -30 11 -94t-11 -94q-13 -40 -48.5 -62.5t-86.5 -22.5z
M206 415q22 0 28 19q3 10 3 75t-3 75q-6 19 -28 19t-28 -19q-3 -10 -3 -75t3 -75q6 -19 28 -19zM980 -8q-51 0 -86.5 22.5t-48.5 62.5q-10 32 -10 94t10 94q13 40 48.5 62.5t86.5 22.5q52 0 87.5 -22.5t48.5 -62.5q10 -32 10 -94t-10 -94q-13 -40 -48.5 -62.5t-87.5 -22.5z
M644 -8q-51 0 -86.5 22.5t-48.5 62.5q-11 30 -11 94t11 94q13 40 48.5 62.5t86.5 22.5t86.5 -22.5t48.5 -62.5q11 -30 11 -94t-11 -94q-13 -40 -48.5 -62.5t-86.5 -22.5zM980 77q22 0 28 19q4 9 4 75q0 64 -4 75q-6 18 -28 18q-21 0 -27 -18q-4 -11 -4 -75q0 -66 4 -75
q6 -19 27 -19zM644 77q22 0 28 19q3 11 3 75q0 63 -3 75q-6 18 -28 18t-28 -18q-3 -12 -3 -75q0 -65 3 -75q6 -19 28 -19z" />
    <glyph glyph-name="guilsinglleft" unicode="&#x2039;" horiz-adv-x="325" 
d="M258 23l-236 234q-7 7 0 14l236 234q3 3 6.5 1.5t3.5 -5.5v-138q0 -10 -10 -19l-76 -76q-4 -4 0 -8l76 -76q10 -9 10 -19v-138q0 -4 -3.5 -5.5t-6.5 1.5z" />
    <glyph glyph-name="guilsinglright" unicode="&#x203a;" horiz-adv-x="325" 
d="M67 23q-3 -3 -6.5 -1.5t-3.5 5.5v138q0 9 10 19l77 76q4 4 0 8l-77 76q-10 10 -10 19v138q0 4 3.5 5.5t6.5 -1.5l236 -234q7 -7 0 -14z" />
    <glyph glyph-name="fraction" unicode="&#x2044;" horiz-adv-x="173" 
d="M-66 -12h-102q-10 0 -4 10l395 684q6 10 16 10h102q10 0 4 -10l-395 -684q-6 -10 -16 -10z" />
    <glyph glyph-name="zero.superior" unicode="&#x2070;" horiz-adv-x="366" 
d="M183 423q-117 0 -147 94q-11 33 -11 116t11 116q30 94 147 94t148 -94q10 -35 10 -116t-10 -116q-31 -94 -148 -94zM183 519q23 0 30 20q3 11 3 94t-3 94q-6 20 -30 20t-30 -20q-3 -11 -3 -94t3 -94q7 -20 30 -20z" />
    <glyph glyph-name="four.superior" unicode="&#x2074;" horiz-adv-x="366" 
d="M306 430h-93q-10 0 -10 10v36q0 6 -6 6h-166q-10 0 -10 10v85q0 10 4 18l107 231q4 10 15 10h107q11 0 7 -10l-111 -241v-2h47q6 0 6 6v57q0 10 10 10h93q10 0 10 -10v-57q0 -6 5 -6h14q10 0 10 -10v-81q0 -10 -10 -10h-13q-6 0 -6 -6v-36q0 -10 -10 -10z" />
    <glyph glyph-name="five.superior" unicode="&#x2075;" horiz-adv-x="366" 
d="M181 423q-59 0 -97 25t-47 69q-1 9 8 12l90 16q8 2 13 -6q10 -19 33 -19q24 0 30 19q3 11 3 23q0 13 -3 22q-6 20 -30 20q-15 0 -25 -10q-5 -6 -12 -6h-93q-10 0 -10 10v228q0 10 10 10h258q10 0 10 -10v-78q0 -11 -10 -11h-155q-6 0 -6 -7v-47h1q22 17 62 17
q91 0 115 -73q8 -21 8 -60q0 -36 -7 -58q-29 -86 -146 -86z" />
    <glyph glyph-name="six.superior" unicode="&#x2076;" horiz-adv-x="366" 
d="M183 423q-70 0 -114 37.5t-44 98.5q0 51 38 116l85 151q7 10 16 10h113q11 0 5 -10l-77 -137l1 -1h5l4 1q56 0 91.5 -35.5t35.5 -94.5q0 -61 -44 -98.5t-115 -37.5zM183 518q18 0 29 11t11 28t-11 27.5t-29 10.5t-29 -10.5t-11 -27.5t11 -28t29 -11z" />
    <glyph glyph-name="seven.superior" unicode="&#x2077;" horiz-adv-x="366" 
d="M199 430h-108q-9 0 -6 12l126 293v2h-59q-6 0 -6 -6v-36q0 -10 -10 -10h-92q-10 0 -10 10v131q0 10 10 10h282q10 0 10 -10v-89q0 -10 -4 -15l-120 -282q-3 -10 -13 -10z" />
    <glyph glyph-name="eight.superior" unicode="&#x2078;" horiz-adv-x="366" 
d="M183 423q-69 0 -114 35t-45 94q0 54 44 89v1q-35 31 -35 76q0 52 40 88.5t110 36.5t110.5 -36.5t40.5 -88.5q0 -44 -36 -76v-1q44 -35 44 -89q0 -59 -45 -94t-114 -35zM183 682q15 0 24.5 9.5t9.5 23.5t-9.5 23.5t-24.5 9.5t-24.5 -9.5t-9.5 -23.5t9.5 -23.5t24.5 -9.5z
M183 518q17 0 29 11.5t12 27.5q0 17 -12 28t-29 11t-29 -11t-12 -28q0 -16 12 -27.5t29 -11.5z" />
    <glyph glyph-name="nine.superior" unicode="&#x2079;" horiz-adv-x="366" 
d="M202 430h-113q-11 0 -5 10l77 137l-1 1h-5l-4 -1q-56 0 -91 35.5t-35 94.5q0 61 44 98.5t114 37.5q71 0 115 -37.5t44 -98.5q0 -48 -38 -116l-86 -151q-7 -10 -16 -10zM183 671q18 0 29 10.5t11 27.5t-11 28t-29 11t-29 -11t-11 -28t11 -27.5t29 -10.5z" />
    <glyph glyph-name="zero.inferior" unicode="&#x2080;" horiz-adv-x="366" 
d="M183 -163q-117 0 -147 94q-11 33 -11 116t11 116q30 94 147 94t148 -94q10 -35 10 -116t-10 -116q-31 -94 -148 -94zM183 -67q23 0 30 20q3 11 3 94t-3 94q-6 20 -30 20t-30 -20q-3 -11 -3 -94t3 -94q7 -20 30 -20z" />
    <glyph glyph-name="one.inferior" unicode="&#x2081;" horiz-adv-x="366" 
d="M268 -156h-102q-10 0 -10 10v270h-2l-66 -38q-4 -2 -7 0t-3 6v97q0 10 9 15l62 40q11 6 17 6h102q10 0 10 -10v-386q0 -10 -10 -10z" />
    <glyph glyph-name="two.inferior" unicode="&#x2082;" horiz-adv-x="366" 
d="M322 -156h-277q-10 0 -10 10v76q0 11 8 18l146 137q23 23 23 45q0 31 -31 31q-32 0 -35 -36q-2 -11 -11 -9l-91 13q-9 1 -9 11q2 49 42.5 83t110.5 34q62 0 103 -33.5t41 -92.5q0 -57 -54 -107l-84 -78v-1h128q10 0 10 -10v-81q0 -10 -10 -10z" />
    <glyph glyph-name="three.inferior" unicode="&#x2083;" horiz-adv-x="366" 
d="M184 -163q-62 0 -103 26.5t-50 75.5q-2 10 8 12l90 14q9 1 13 -7q12 -25 38 -25q36 0 36 35t-43 35h-13q-10 0 -10 10v74q0 10 10 10h13q16 0 26 8.5t10 23.5q0 32 -32 32q-24 0 -34 -23q-3 -9 -12 -7l-90 14q-10 2 -8 11q9 45 48 73t101 28q69 0 108 -31.5t39 -82.5
t-45 -82v-1q52 -24 52 -94q0 -59 -41 -94t-111 -35z" />
    <glyph glyph-name="four.inferior" unicode="&#x2084;" horiz-adv-x="366" 
d="M306 -156h-93q-10 0 -10 10v36q0 6 -6 6h-166q-10 0 -10 10v85q0 10 4 18l107 231q4 10 15 10h107q11 0 7 -10l-111 -241v-2h47q6 0 6 6v57q0 10 10 10h93q10 0 10 -10v-57q0 -6 5 -6h14q10 0 10 -10v-81q0 -10 -10 -10h-13q-6 0 -6 -6v-36q0 -10 -10 -10z" />
    <glyph glyph-name="five.inferior" unicode="&#x2085;" horiz-adv-x="366" 
d="M181 -163q-59 0 -97 25t-47 69q-1 9 8 12l90 16q8 2 13 -6q10 -19 33 -19q24 0 30 19q3 11 3 23q0 13 -3 22q-6 20 -30 20q-15 0 -25 -10q-5 -6 -12 -6h-93q-10 0 -10 10v228q0 10 10 10h258q10 0 10 -10v-78q0 -11 -10 -11h-155q-6 0 -6 -7v-47h1q22 17 62 17
q91 0 115 -73q8 -21 8 -60q0 -36 -7 -58q-29 -86 -146 -86z" />
    <glyph glyph-name="six.inferior" unicode="&#x2086;" horiz-adv-x="366" 
d="M183 -163q-70 0 -114 37.5t-44 98.5q0 51 38 116l85 151q7 10 16 10h113q11 0 5 -10l-77 -137l1 -1h5l4 1q56 0 91.5 -35.5t35.5 -94.5q0 -61 -44 -98.5t-115 -37.5zM183 -68q18 0 29 11t11 28t-11 27.5t-29 10.5t-29 -10.5t-11 -27.5t11 -28t29 -11z" />
    <glyph glyph-name="seven.inferior" unicode="&#x2087;" horiz-adv-x="366" 
d="M199 -156h-108q-9 0 -6 12l126 293v2h-59q-6 0 -6 -6v-36q0 -10 -10 -10h-92q-10 0 -10 10v131q0 10 10 10h282q10 0 10 -10v-89q0 -10 -4 -15l-120 -282q-3 -10 -13 -10z" />
    <glyph glyph-name="eight.inferior" unicode="&#x2088;" horiz-adv-x="366" 
d="M183 -163q-69 0 -114 35t-45 94q0 54 44 89v1q-35 31 -35 76q0 52 40 88.5t110 36.5t110.5 -36.5t40.5 -88.5q0 -44 -36 -76v-1q44 -35 44 -89q0 -59 -45 -94t-114 -35zM183 96q15 0 24.5 9.5t9.5 23.5t-9.5 23.5t-24.5 9.5t-24.5 -9.5t-9.5 -23.5t9.5 -23.5t24.5 -9.5z
M183 -68q17 0 29 11.5t12 27.5q0 17 -12 28t-29 11t-29 -11t-12 -28q0 -16 12 -27.5t29 -11.5z" />
    <glyph glyph-name="nine.inferior" unicode="&#x2089;" horiz-adv-x="366" 
d="M202 -156h-113q-11 0 -5 10l77 137l-1 1h-5l-4 -1q-56 0 -91 35.5t-35 94.5q0 61 44 98.5t114 37.5q71 0 115 -37.5t44 -98.5q0 -48 -38 -116l-86 -151q-7 -10 -16 -10zM183 85q18 0 29 10.5t11 27.5t-11 28t-29 11t-29 -11t-11 -28t11 -27.5t29 -10.5z" />
    <glyph glyph-name="Euro" unicode="&#x20ac;" 
d="M322 -12q-172 0 -220 145q-13 44 -13 100q0 6 -6 6h-38q-10 0 -10 10v62q0 10 10 10h38q6 0 6 6v29q0 6 -6 6h-38q-10 0 -10 10v63q0 10 10 10h38q6 0 6 6q0 52 13 96q48 145 220 145q151 0 208 -124q4 -10 -5 -14l-115 -52q-12 -4 -17 5q-22 47 -68 47q-47 0 -61 -46
q-6 -17 -6 -57q0 -6 6 -6h151q10 0 10 -10l-10 -63q-1 -10 -10 -10h-141q-6 0 -6 -6v-29q0 -6 6 -6h131q10 0 10 -10l-10 -62q-1 -10 -10 -10h-121q-6 0 -6 -6q0 -45 6 -61q14 -46 61 -46q46 0 68 47q5 9 17 5l115 -52q9 -4 5 -14q-57 -124 -208 -124z" />
    <glyph glyph-name="afii61289" unicode="&#x2113;" horiz-adv-x="474" 
d="M95 131q-8 -5 -14 2l-50 73q-5 9 2 14l89 66v176q0 109 42.5 169.5t127.5 60.5q67 0 107.5 -41.5t40.5 -114.5q0 -144 -173 -296v-80q0 -45 37 -45q21 0 52 21q8 6 14 -2l50 -73q6 -8 -2 -14q-64 -59 -145 -59q-73 0 -111.5 41.5t-39.5 121.5zM267 491v-93q57 70 57 140
q0 44 -27 44q-16 0 -23 -18.5t-7 -72.5z" />
    <glyph glyph-name="trademark" unicode="&#x2122;" horiz-adv-x="841" 
d="M782 286h-78q-10 0 -10 10v185h-3l-57 -130q-4 -10 -14 -10h-47q-9 0 -13 10l-58 130h-2v-185q0 -10 -10 -10h-79q-10 0 -10 10v374q0 10 10 10h81q11 0 15 -10l89 -199h4l88 199q4 10 14 10h80q10 0 10 -10v-374q0 -10 -10 -10zM239 286h-89q-10 0 -10 10v282q0 6 -6 6
h-92q-10 0 -10 10v76q0 10 10 10h305q10 0 10 -10v-76q0 -10 -10 -10h-92q-6 0 -6 -6v-282q0 -10 -10 -10z" />
    <glyph glyph-name="estimated" unicode="&#x212e;" horiz-adv-x="578" 
d="M288 -12q-106 0 -172 74t-66 182q0 109 65.5 182t172.5 73t173 -71t67 -184h-374v-167q53 -53 134 -53q115 0 177 110l33 -21q-43 -66 -91 -95.5t-119 -29.5zM424 278v133q-62 57 -136 57q-80 0 -134 -57v-133h270z" />
    <glyph glyph-name="onethird" unicode="&#x2153;" horiz-adv-x="943" 
d="M274 274h-102q-10 0 -10 10v270h-2l-66 -38q-4 -2 -7 0t-3 6v97q0 10 9 15l62 40q10 6 17 6h102q10 0 10 -10v-386q0 -10 -10 -10zM287 -12h-102q-10 0 -4 10l395 684q6 10 16 10h102q10 0 4 -10l-395 -684q-6 -10 -16 -10zM706 -7q-62 0 -103 26.5t-50 75.5q-2 10 8 12
l90 14q9 1 13 -7q12 -25 38 -25q36 0 36 35t-43 35h-13q-10 0 -10 10v74q0 10 10 10h13q16 0 26 8.5t10 23.5q0 32 -32 32q-24 0 -34 -23q-3 -9 -12 -7l-90 14q-10 2 -8 11q9 45 48 73t101 28q69 0 108 -31.5t39 -82.5t-45 -82v-1q52 -24 52 -94q0 -59 -41 -94t-111 -35z
" />
    <glyph glyph-name="twothirds" unicode="&#x2154;" horiz-adv-x="1036" 
d="M371 274h-277q-10 0 -10 10v76q0 11 8 18l146 137q23 23 23 45q0 31 -31 31q-32 0 -35 -36q-2 -11 -11 -9l-91 13q-9 1 -9 11q2 49 42.5 83t110.5 34q62 0 103 -33.5t41 -92.5q0 -57 -54 -107l-84 -78v-1h128q10 0 10 -10v-81q0 -10 -10 -10zM380 -12h-102q-10 0 -4 10
l395 684q6 10 16 10h102q10 0 4 -10l-395 -684q-6 -10 -16 -10zM799 -7q-62 0 -103 26.5t-50 75.5q-2 10 8 12l90 14q9 1 13 -7q13 -25 38 -25q36 0 36 35t-43 35h-13q-10 0 -10 10v74q0 10 10 10h13q16 0 26 8.5t10 23.5q0 32 -32 32q-24 0 -34 -23q-3 -9 -12 -7l-90 14
q-10 2 -8 11q9 45 48 73t101 28q69 0 108 -31.5t39 -82.5t-45 -82v-1q52 -24 52 -94q0 -59 -41 -94t-111 -35z" />
    <glyph glyph-name="oneeighth" unicode="&#x215b;" horiz-adv-x="947" 
d="M274 274h-102q-10 0 -10 10v270h-2l-66 -38q-4 -2 -7 0t-3 6v97q0 10 9 15l62 40q10 6 17 6h102q10 0 10 -10v-386q0 -10 -10 -10zM703 -7q-69 0 -114 35t-45 94q0 54 44 89v1q-35 31 -35 76q0 52 40 88.5t110 36.5t110.5 -36.5t40.5 -88.5q0 -44 -36 -76v-1
q44 -35 44 -89q0 -59 -45 -94t-114 -35zM703 252q15 0 24.5 9.5t9.5 23.5t-9.5 23.5t-24.5 9.5t-24.5 -9.5t-9.5 -23.5t9.5 -23.5t24.5 -9.5zM703 88q17 0 29 11.5t12 27.5q0 17 -12 28t-29 11t-29 -11t-12 -28q0 -16 12 -27.5t29 -11.5zM287 -12h-102q-10 0 -4 10l395 684
q6 10 16 10h102q10 0 4 -10l-395 -684q-6 -10 -16 -10z" />
    <glyph glyph-name="threeeighths" unicode="&#x215c;" horiz-adv-x="1010" 
d="M766 -7q-69 0 -114 35t-45 94q0 54 44 89v1q-35 31 -35 76q0 52 40 88.5t110 36.5t110.5 -36.5t40.5 -88.5q0 -44 -36 -76v-1q44 -35 44 -89q0 -59 -45 -94t-114 -35zM766 252q15 0 24.5 9.5t9.5 23.5t-9.5 23.5t-24.5 9.5t-24.5 -9.5t-9.5 -23.5t9.5 -23.5t24.5 -9.5z
M766 88q17 0 29 11.5t12 27.5q0 17 -12 28t-29 11t-29 -11t-12 -28q0 -16 12 -27.5t29 -11.5zM350 -12h-102q-10 0 -4 10l395 684q6 10 16 10h102q10 0 4 -10l-395 -684q-6 -10 -16 -10zM237 267q-62 0 -103 26.5t-50 75.5q-2 10 8 12l90 14q9 1 13 -7q13 -25 38 -25
q36 0 36 35t-43 35h-13q-10 0 -10 10v74q0 10 10 10h13q16 0 26 8.5t10 23.5q0 32 -32 32q-24 0 -34 -23q-3 -9 -12 -7l-90 14q-10 2 -8 11q9 45 48 73t101 28q69 0 108 -31.5t39 -82.5t-45 -82v-1q52 -24 52 -94q0 -59 -41 -94t-111 -35z" />
    <glyph glyph-name="fiveeighths" unicode="&#x215d;" horiz-adv-x="1002" 
d="M758 -7q-69 0 -114 35t-45 94q0 54 44 89v1q-35 31 -35 76q0 52 40 88.5t110 36.5t110.5 -36.5t40.5 -88.5q0 -44 -36 -76v-1q44 -35 44 -89q0 -59 -45 -94t-114 -35zM758 252q15 0 24.5 9.5t9.5 23.5t-9.5 23.5t-24.5 9.5t-24.5 -9.5t-9.5 -23.5t9.5 -23.5t24.5 -9.5z
M758 88q17 0 29 11.5t12 27.5q0 17 -12 28t-29 11t-29 -11t-12 -28q0 -16 12 -27.5t29 -11.5zM342 -12h-102q-10 0 -4 10l395 684q6 10 16 10h102q10 0 4 -10l-395 -684q-6 -10 -16 -10zM228 267q-59 0 -97 25t-47 69q-1 9 8 12l90 16q8 2 13 -6q9 -19 33 -19t30 19
q3 11 3 23q0 13 -3 22q-6 20 -30 20q-15 0 -25 -10q-5 -6 -12 -6h-93q-10 0 -10 10v228q0 10 10 10h258q10 0 10 -10v-78q0 -11 -10 -11h-155q-6 0 -6 -7v-47h1q22 17 62 17q91 0 115 -73q8 -21 8 -60q0 -36 -7 -58q-29 -86 -146 -86z" />
    <glyph glyph-name="seveneighths" unicode="&#x215e;" horiz-adv-x="918" 
d="M715 -7q-69 0 -114 35t-45 94q0 54 44 89v1q-35 31 -35 76q0 52 40 88.5t110 36.5t110.5 -36.5t40.5 -88.5q0 -44 -36 -76v-1q44 -35 44 -89q0 -59 -45 -94t-114 -35zM715 252q15 0 24.5 9.5t9.5 23.5t-9.5 23.5t-24.5 9.5t-24.5 -9.5t-9.5 -23.5t9.5 -23.5t24.5 -9.5z
M715 88q17 0 29 11.5t12 27.5q0 17 -12 28t-29 11t-29 -11t-12 -28q0 -16 12 -27.5t29 -11.5zM248 274h-108q-9 0 -6 12l126 293v2h-59q-6 0 -6 -6v-36q0 -10 -10 -10h-92q-10 0 -10 10v131q0 10 10 10h282q10 0 10 -10v-89q0 -10 -4 -15l-120 -282q-3 -10 -13 -10zM299 -12
h-102q-10 0 -4 10l395 684q6 10 16 10h102q10 0 4 -10l-395 -684q-6 -10 -16 -10z" />
    <glyph glyph-name="partialdiff" unicode="&#x2202;" horiz-adv-x="552" 
d="M249 -12q-98 0 -157 59.5t-59 151.5q0 95 58 157t154 62q68 0 113 -36h2q-2 80 -32.5 125t-86.5 45q-47 0 -96 -37q-7 -6 -14 3l-60 89q-5 8 2 15q31 30 80.5 50t100.5 20q124 0 194.5 -87.5t70.5 -247.5q0 -167 -69.5 -268t-200.5 -101zM259 126q75 0 94 131
q-44 29 -86 29q-36 0 -57 -22.5t-21 -63.5q0 -33 18.5 -53.5t51.5 -20.5z" />
    <glyph glyph-name="product" unicode="&#x220f;" horiz-adv-x="667" 
d="M599 -180h-156q-10 0 -10 10v748q0 6 -6 6h-187q-6 0 -6 -6v-748q0 -10 -10 -10h-156q-10 0 -10 10v900q0 10 10 10h531q10 0 10 -10v-900q0 -10 -10 -10z" />
    <glyph glyph-name="summation" unicode="&#x2211;" horiz-adv-x="550" 
d="M513 -180h-475q-10 0 -10 10v132q0 5 2 9l169 345l-164 267q-3 6 -3 11v136q0 10 10 10h461q10 0 10 -10v-136q0 -10 -10 -10h-273l152 -251q3 -7 0 -14l-165 -343h296q10 0 10 -10v-136q0 -10 -10 -10z" />
    <glyph glyph-name="minus" unicode="&#x2212;" 
d="M505 206h-448q-10 0 -10 10v120q0 10 10 10h448q10 0 10 -10v-120q0 -10 -10 -10z" />
    <glyph glyph-name="uni2215" unicode="&#x2215;" horiz-adv-x="173" 
d="M-66 -12h-102q-10 0 -4 10l395 684q6 10 16 10h102q10 0 4 -10l-395 -684q-6 -10 -16 -10z" />
    <glyph glyph-name="uni2219" unicode="&#x2219;" horiz-adv-x="263" 
d="M201 186h-139q-10 0 -10 10v138q0 10 10 10h139q10 0 10 -10v-138q0 -10 -10 -10z" />
    <glyph glyph-name="radical" unicode="&#x221a;" horiz-adv-x="658" 
d="M387 -180h-115q-9 0 -13 10l-115 235q-3 6 -9 3l-58 -29q-9 -5 -13 4l-43 86q-5 9 4 13l176 86q10 5 14 -4l94 -198h3l185 704q3 10 12 10h133q11 0 8 -10l-249 -900q-3 -10 -14 -10z" />
    <glyph glyph-name="infinity" unicode="&#x221e;" horiz-adv-x="742" 
d="M545 75q-87 0 -174 87q-88 -87 -175 -87q-73 0 -121 47.5t-48 123.5t48.5 124t122.5 48q83 0 173 -90q48 48 88 69t85 21q74 0 122.5 -47.5t48.5 -124.5q0 -75 -48 -123t-122 -48zM540 184q28 0 44 18.5t16 45.5t-16 44t-44 17q-37 0 -94 -63q32 -35 52.5 -48.5
t41.5 -13.5zM202 184q35 0 94 62q-57 63 -94 63q-29 0 -45 -17t-16 -44q0 -28 16.5 -46t44.5 -18z" />
    <glyph glyph-name="integral" unicode="&#x222b;" horiz-adv-x="411" 
d="M101 -180q-35 0 -55 4q-10 2 -10 11v115q0 11 10 11q15 -3 31 -3q24 0 34.5 14t10.5 48v510q0 112 45 161t143 49q35 0 55 -4q10 -2 10 -11v-115q0 -11 -10 -11q-15 3 -30 3q-24 0 -34.5 -14t-10.5 -48v-510q0 -112 -45.5 -161t-143.5 -49z" />
    <glyph glyph-name="approxequal" unicode="&#x2248;" 
d="M370 292q-49 0 -102 32q-39 25 -63 25q-36 0 -63 -46q-6 -10 -14 -3l-81 51q-7 4 -4 14q23 50 62.5 81t86.5 31q51 0 102 -33q41 -25 64 -25q34 0 62 46q5 9 14 4l82 -52q8 -5 3 -14q-22 -49 -61.5 -80t-87.5 -31zM370 73q-51 0 -102 33q-39 25 -63 25q-36 0 -63 -46
q-5 -9 -14 -4l-81 52q-7 4 -4 14q23 50 62.5 80.5t86.5 30.5q49 0 102 -32q41 -25 64 -25q35 0 62 46q6 10 14 3l82 -51q8 -5 3 -14q-22 -50 -62 -81t-87 -31z" />
    <glyph glyph-name="notequal" unicode="&#x2260;" 
d="M184 -9h-88q-11 0 -5 10l47 95h-81q-10 0 -10 10v120q0 10 10 10h150l40 80h-190q-10 0 -10 10v120q0 10 10 10h259l48 95q5 10 14 10h88q4 0 6 -3t0 -7l-48 -95h81q10 0 10 -10v-120q0 -10 -10 -10h-150l-40 -80h190q10 0 10 -10v-120q0 -10 -10 -10h-259l-47 -95
q-5 -10 -15 -10z" />
    <glyph glyph-name="lessequal" unicode="&#x2264;" 
d="M505 171l-448 167q-10 3 -10 14v102q0 11 10 14l448 167q10 3 10 -6v-129q0 -9 -10 -13l-243 -83v-2l243 -83q10 -4 10 -13v-129q0 -9 -10 -6zM505 0h-448q-10 0 -10 10v120q0 10 10 10h448q10 0 10 -10v-120q0 -10 -10 -10z" />
    <glyph glyph-name="greaterequal" unicode="&#x2265;" 
d="M505 338l-448 -167q-10 -3 -10 6v129q0 9 10 13l244 83v2l-244 83q-10 4 -10 13v129q0 9 10 6l448 -167q10 -3 10 -14v-102q0 -11 -10 -14zM505 0h-448q-10 0 -10 10v120q0 10 10 10h448q10 0 10 -10v-120q0 -10 -10 -10z" />
    <glyph glyph-name="lozenge" unicode="&#x25ca;" horiz-adv-x="557" 
d="M337 -52h-116q-11 0 -15 10l-174 364q-3 7 0 14l174 364q4 10 15 10h116q10 0 14 -10l174 -364q3 -7 0 -14l-174 -364q-4 -10 -14 -10zM282 105l94 224l-97 224h-2l-96 -224l99 -224h2z" />
    <glyph glyph-name="uniF8FF" unicode="&#xf8ff;" horiz-adv-x="530" 
d="M520 0h-510q-10 0 -10 10v660q0 10 10 10h510q10 0 10 -10v-660q0 -10 -10 -10zM445 75q6 0 6 6v518q0 6 -6 6h-360q-6 0 -6 -6v-518q0 -6 6 -6h360zM300 249h-81q-10 0 -10 10v24q0 29 20 54l39 47q28 32 28 51q0 17 -10 27t-26 10q-33 0 -41 -34q-3 -10 -12 -9l-76 10
q-10 2 -8 11q8 52 45.5 82.5t96.5 30.5q61 0 98.5 -34.5t37.5 -85.5q0 -49 -40 -92l-38 -47q-13 -14 -13 -35v-10q0 -10 -10 -10zM301 113h-83q-10 0 -10 10v75q0 10 10 10h83q10 0 10 -10v-75q0 -10 -10 -10z" />
    <glyph glyph-name="CR" horiz-adv-x="0" 
 />
    <glyph glyph-name="grave.cap" horiz-adv-x="489" 
d="M369 747h-115q-11 0 -20 9l-128 123q-3 4 -1.5 7t6.5 3h142q10 0 18 -10l102 -122q3 -4 2 -7t-6 -3z" />
    <glyph glyph-name="acute.cap" horiz-adv-x="489" 
d="M236 747h-115q-5 0 -6 3t2 7l102 122q8 10 18 10h142q5 0 6.5 -3t-1.5 -7l-128 -123q-9 -9 -20 -9z" />
    <glyph glyph-name="circumflex.cap" horiz-adv-x="489" 
d="M411 741h-95q-13 0 -23 10l-48 50h-2l-49 -50q-10 -10 -23 -10h-95q-4 0 -5.5 3t1.5 7l108 137q7 10 19 10h90q12 0 19 -10l108 -137q3 -4 1.5 -7t-6.5 -3z" />
    <glyph glyph-name="caron.cap" horiz-adv-x="489" 
d="M289 736h-90q-12 0 -19 10l-108 136q-3 4 -1.5 7t5.5 3h95q13 0 23 -10l49 -49h2l48 49q10 10 23 10h95q5 0 6.5 -3t-1.5 -7l-108 -136q-7 -10 -19 -10z" />
    <glyph glyph-name="caron.alt" horiz-adv-x="489" 
d="M191 472q-11 0 -11 13v185q0 10 10 10h109q10 0 10 -10v-94q0 -13 -9 -21l-92 -75q-9 -8 -17 -8z" />
    <glyph glyph-name="tilde.cap" horiz-adv-x="489" 
d="M313 740q-37 0 -83 23q-36 18 -60 18q-33 0 -76 -33q-4 -3 -7 -1.5t-3 5.5v81q0 12 9 22q37 37 81 37q36 0 84 -24q38 -17 60 -17q33 0 75 32q11 7 11 -3v-81q0 -13 -10 -22q-37 -37 -81 -37z" />
    <glyph glyph-name="dieresis.cap" horiz-adv-x="489" 
d="M401 750h-107q-10 0 -10 10v110q0 10 10 10h107q10 0 10 -10v-110q0 -10 -10 -10zM195 750h-107q-10 0 -10 10v110q0 10 10 10h107q10 0 10 -10v-110q0 -10 -10 -10z" />
    <glyph glyph-name="macron.cap" horiz-adv-x="489" 
d="M395 761h-301q-10 0 -10 10v90q0 10 10 10h301q10 0 10 -10v-90q0 -10 -10 -10z" />
    <glyph glyph-name="breve.cap" horiz-adv-x="489" 
d="M244 734q-68 0 -113 40.5t-47 100.5q0 10 12 10h65q10 0 14 -10q18 -40 69 -40q52 0 70 40q4 10 14 10h65q12 0 12 -10q-2 -60 -47 -100.5t-114 -40.5z" />
    <glyph glyph-name="ring.cap" horiz-adv-x="489" 
d="M244 704q-49 0 -81.5 32.5t-32.5 81.5t32.5 81t81.5 32q50 0 82.5 -32t32.5 -81t-32.5 -81.5t-82.5 -32.5zM244 773q19 0 31.5 13t12.5 32t-12.5 31.5t-31.5 12.5q-18 0 -30.5 -12.5t-12.5 -31.5t12.5 -32t30.5 -13z" />
    <glyph glyph-name="hungarumlaut.cap" horiz-adv-x="489" 
d="M334 748h-97q-11 0 -5 10l74 118q6 10 17 10h114q11 0 5 -10l-89 -118q-6 -10 -19 -10zM150 748h-98q-11 0 -5 10l75 118q6 10 17 10h114q11 0 5 -10l-89 -118q-8 -10 -19 -10z" />
    <glyph glyph-name="dotaccent.cap" horiz-adv-x="489" 
d="M313 750h-138q-10 0 -10 10v110q0 10 10 10h138q10 0 10 -10v-110q0 -10 -10 -10z" />
    <glyph glyph-name="commaaccent" horiz-adv-x="489" 
d="M186 -248q-11 0 -11 13v179q0 10 10 10h120q10 0 10 -10v-89q0 -14 -9 -20l-103 -75q-11 -8 -17 -8z" />
    <glyph glyph-name="commaaccent.alt" horiz-adv-x="489" 
d="M305 550h-120q-10 0 -10 10v88q0 15 8 21l104 75q10 7 17 7q11 0 11 -12v-179q0 -10 -10 -10z" />
    <glyph glyph-name="uni0394" horiz-adv-x="674" 
d="M656 0h-638q-11 0 -8 10l235 660q3 10 13 10h163q10 0 13 -10l230 -660q3 -10 -8 -10zM432 149q6 0 5 6l-97 318h-3l-100 -318q-1 -6 5 -6h190z" />
    <glyph glyph-name="uni03A9" horiz-adv-x="639" 
d="M584 0h-223q-10 0 -10 10v117q0 11 9 15q34 17 46 57.5t12 140.5q0 103 -10 135q-22 60 -89 60q-68 0 -88 -60q-10 -27 -10 -135q0 -100 12 -140.5t46 -57.5q9 -4 9 -15v-117q0 -10 -10 -10h-223q-10 0 -10 10v123q0 10 10 10h49v1q-62 46 -62 196q0 123 21 183
q28 82 94.5 125.5t161.5 43.5t161.5 -43t95.5 -126q21 -60 21 -183q0 -149 -62 -196v-1h49q10 0 10 -10v-123q0 -10 -10 -10z" />
    <glyph glyph-name="uni03BC" horiz-adv-x="559" 
d="M496 0h-148q-10 0 -10 10v37h-1q-26 -44 -77 -51q-20 -1 -38 7h-1v-173q0 -10 -10 -10h-148q-10 0 -10 10v647q0 10 10 10h148q10 0 10 -10v-278q0 -71 59 -71q58 0 58 71v278q0 10 10 10h148q10 0 10 -10v-467q0 -10 -10 -10z" />
    <glyph glyph-name="zero.onum" 
d="M281 -12q-115 0 -188.5 72.5t-73.5 182.5t73.5 183t188.5 73q116 0 189 -72.5t73 -183.5q0 -110 -73 -182.5t-189 -72.5zM281 139q44 0 70 30t26 74q0 45 -26 75t-70 30q-43 0 -69.5 -30t-26.5 -75q0 -44 26.5 -74t69.5 -30z" />
    <glyph glyph-name="one.onum" 
d="M400 0h-148q-10 0 -10 10v316h-2l-129 -47q-12 -4 -12 7v129q0 11 9 15l131 53q11 4 20 4h141q10 0 10 -10v-467q0 -10 -10 -10z" />
    <glyph glyph-name="two.onum" 
d="M495 0h-430q-10 0 -10 10v98q0 10 7 16l206 115q43 25 57.5 41t14.5 36q0 22 -17 36t-46 14q-60 0 -71 -55q-2 -10 -11 -9l-131 20q-9 2 -9 11q7 73 68 119.5t160 46.5t160.5 -49t61.5 -126q0 -52 -25 -85.5t-74 -60.5l-85 -47v-2h174q10 0 10 -10v-109q0 -10 -10 -10z
" />
    <glyph glyph-name="three.onum" 
d="M282 -192q-98 0 -159.5 47t-71.5 122q-2 9 8 11l133 22q10 1 12 -8q16 -56 72 -56q33 0 52 19.5t19 57.5q0 78 -97 78h-41q-10 0 -10 10v113q0 7 7 16l91 105v2h-218q-10 0 -10 10v120q0 10 10 10h405q10 0 10 -10v-115q0 -10 -7 -17l-116 -132v-2q141 -34 141 -193
q0 -97 -65 -153.5t-165 -56.5z" />
    <glyph glyph-name="four.onum" 
d="M466 -180h-143q-10 0 -10 10v164q0 6 -6 6h-258q-10 0 -10 10v127q0 8 3 14l158 328q4 8 15 8h155q5 0 7 -3t0 -7l-160 -331v-2h90q6 0 6 6v116q0 10 10 10h143q10 0 10 -10v-116q0 -6 5 -6h39q10 0 10 -10v-124q0 -10 -10 -10h-38q-6 0 -6 -6v-164q0 -10 -10 -10z" />
    <glyph glyph-name="five.onum" 
d="M285 -192q-94 0 -152.5 45t-66.5 116q-2 9 8 12l131 21q10 1 13 -9q16 -47 65 -47q45 0 58 39q7 18 7 51q0 32 -7 52q-13 38 -58 38q-39 0 -55 -31q-4 -10 -14 -10h-128q-10 0 -10 10v382q0 10 10 10h396q10 0 10 -10v-120q0 -10 -10 -10h-258q-6 0 -6 -6v-114h2
q36 36 105 36q136 0 173 -115q14 -44 14 -113q0 -50 -15 -95q-21 -65 -76 -98.5t-136 -33.5z" />
    <glyph glyph-name="six.onum" 
d="M281 -12q-105 0 -171.5 60t-66.5 159q0 79 54 183l151 283q4 7 13 7h157q12 0 7 -11l-136 -254l2 -1q12 5 33 5q85 0 140.5 -58.5t55.5 -151.5q0 -100 -66.5 -160.5t-172.5 -60.5zM281 126q35 0 56.5 22.5t21.5 57.5q0 36 -21.5 58.5t-56.5 22.5q-34 0 -55.5 -23
t-21.5 -58t21.5 -57.5t55.5 -22.5z" />
    <glyph glyph-name="seven.onum" 
d="M292 -180h-155q-5 0 -7 3.5t0 7.5l205 508v3h-115q-6 0 -6 -6v-64q0 -10 -10 -10h-136q-10 0 -10 10v205q0 10 10 10h430q10 0 10 -10v-133q0 -4 -2 -10l-201 -504q-3 -10 -13 -10z" />
    <glyph glyph-name="eight.onum" 
d="M281 -12q-104 0 -172 57.5t-68 153.5q0 99 78 154v2q-63 49 -63 135q0 84 61 143t164 59t164 -59t61 -143q0 -87 -62 -135v-2q77 -54 77 -154q0 -96 -68 -153.5t-172 -57.5zM281 420q29 0 48 19.5t19 47.5t-19 47.5t-48 19.5t-47.5 -19.5t-18.5 -47.5t18.5 -47.5
t47.5 -19.5zM281 126q35 0 57 22t22 57t-22 57.5t-57 22.5t-57 -22.5t-22 -57.5t22 -57t57 -22z" />
    <glyph glyph-name="nine.onum" 
d="M309 -180h-158q-13 0 -7 11l129 241l-2 1q-13 -5 -33 -5q-85 0 -140.5 58.5t-55.5 151.5q0 100 66.5 160.5t171.5 60.5q106 0 172.5 -60t66.5 -159q0 -80 -54 -183l-144 -270q-4 -7 -12 -7zM280 200q35 0 56.5 22.5t21.5 58.5q0 35 -21.5 57.5t-56.5 22.5
q-34 0 -55.5 -22.5t-21.5 -57.5t21.5 -58t55.5 -23z" />
    <glyph glyph-name="zero.prop" 
d="M64 134q-16 48 -16 206t16 206q23 70 78.5 108t138.5 38q84 0 139 -38t79 -108q15 -49 15 -206q0 -156 -15 -206q-24 -70 -79 -108t-139 -38q-83 0 -138.5 38t-78.5 108zM226 163q12 -37 55 -37q44 0 56 37q7 22 7 177t-7 177q-12 37 -56 37q-43 0 -55 -37
q-8 -21 -8 -177t8 -177z" />
    <glyph glyph-name="one.prop" horiz-adv-x="411" 
d="M159 10v488h-2l-115 -76q-4 -3 -8 -1.5t-4 7.5v146q0 8 7 14l122 86q7 6 18 6h139q10 0 10 -10v-660q0 -10 -10 -10h-147q-10 0 -10 10z" />
    <glyph glyph-name="two.prop" horiz-adv-x="526" 
d="M37 10v112q0 8 5 14l239 268q37 41 37 84q0 30 -16 48t-45 18q-61 0 -68 -76q0 -11 -11 -9l-132 20q-10 2 -8 12q5 83 67 137t159 54q98 0 158.5 -56t60.5 -142q0 -93 -74 -172l-162 -180v-2h226q10 0 10 -10v-120q0 -10 -10 -10h-426q-10 0 -10 10z" />
    <glyph glyph-name="three.prop" horiz-adv-x="532" 
d="M31 156q-2 10 8 12l133 22q10 2 12 -8q17 -56 75 -56q32 0 51 20t19 55q0 38 -21.5 59t-59.5 21h-27q-10 0 -10 10v116q0 10 10 10h25q33 0 52 18.5t19 51.5q0 31 -17.5 49t-46.5 18q-52 0 -65 -55q-2 -10 -11 -8l-133 21q-10 2 -8 12q14 76 73 122t153 46
q102 0 161 -52.5t59 -135.5q0 -89 -77 -140v-2q89 -47 89 -164q0 -93 -64.5 -151.5t-166.5 -58.5q-95 0 -157 45t-75 123z" />
    <glyph glyph-name="four.prop" 
d="M42 95q-10 0 -10 10v128q0 7 2 11l187 428q3 8 14 8h157q12 0 7 -10l-189 -429v-2h96q6 0 6 6v120q0 10 10 10h140q10 0 10 -10v-120q0 -6 5 -6h39q10 0 10 -10v-124q0 -10 -10 -10h-38q-6 0 -6 -6v-79q0 -10 -10 -10h-140q-10 0 -10 10v79q0 6 -6 6h-264z" />
    <glyph glyph-name="five.prop" horiz-adv-x="529" 
d="M50 149q0 9 9 12l130 21q10 1 13 -9q16 -47 66 -47q44 0 57 39q7 18 7 57q0 40 -7 58q-13 39 -58 39q-39 0 -55 -32q-5 -10 -14 -10h-128q-10 0 -10 10v383q0 10 10 10h396q10 0 10 -10v-120q0 -10 -10 -10h-258q-6 0 -6 -6v-114h2q37 35 105 35q136 0 173 -114
q15 -47 15 -119q0 -57 -15 -102q-21 -65 -77 -98.5t-136 -33.5q-93 0 -152 45t-67 116z" />
    <glyph glyph-name="six.prop" horiz-adv-x="545" 
d="M34 207q0 79 54 183l151 283q4 7 12 7h158q13 0 7 -11l-136 -254l1 -1q15 5 34 5q85 0 140.5 -58.5t55.5 -151.5q0 -100 -66.5 -160.5t-172.5 -60.5q-105 0 -171.5 60t-66.5 159zM195 206q0 -35 21.5 -57.5t55.5 -22.5q35 0 56.5 22.5t21.5 57.5q0 36 -21.5 58.5
t-56.5 22.5q-34 0 -55.5 -23t-21.5 -58z" />
    <glyph glyph-name="seven.prop" horiz-adv-x="517" 
d="M103 11l210 521v3h-117q-6 0 -6 -6v-64q0 -10 -10 -10h-136q-10 0 -10 10v205q0 10 10 10h433q10 0 10 -10v-132q0 -4 -2 -10l-207 -518q-4 -10 -14 -10h-153q-5 0 -7 3.5t-1 7.5z" />
    <glyph glyph-name="eight.prop" horiz-adv-x="556" 
d="M38 199q0 99 78 154v2q-63 49 -63 135q0 84 61 143t164 59t164 -59t61 -143q0 -87 -62 -135v-2q77 -54 77 -154q0 -96 -68 -153.5t-172 -57.5t-172 57.5t-68 153.5zM278 420q29 0 48 19.5t19 47.5t-19 47.5t-48 19.5t-47.5 -19.5t-18.5 -47.5t18.5 -47.5t47.5 -19.5z
M199 205q0 -35 22.5 -57t56.5 -22t56.5 22t22.5 57t-22 57.5t-57 22.5t-57 -22.5t-22 -57.5z" />
    <glyph glyph-name="nine.prop" horiz-adv-x="545" 
d="M129 11l136 254l-2 1q-13 -5 -33 -5q-85 0 -140.5 58.5t-55.5 151.5q0 100 66.5 160.5t172.5 60.5q105 0 171.5 -60t66.5 -159q0 -79 -54 -183l-151 -283q-4 -7 -13 -7h-157q-12 0 -7 11zM273 393q34 0 55.5 23t21.5 58t-21.5 57.5t-55.5 22.5q-35 0 -56.5 -22.5
t-21.5 -57.5q0 -36 21.5 -58.5t56.5 -22.5z" />
    <glyph glyph-name="Euro.prop" horiz-adv-x="568" 
d="M326 -12q-172 0 -220 145q-13 44 -13 100q0 6 -6 6h-38q-10 0 -10 10v62q0 10 10 10h38q6 0 6 6v29q0 6 -6 6h-38q-10 0 -10 10v63q0 10 10 10h38q6 0 6 6q0 52 13 96q48 145 220 145q151 0 208 -124q4 -10 -5 -14l-115 -52q-12 -4 -17 5q-22 47 -68 47q-47 0 -61 -46
q-6 -17 -6 -57q0 -6 6 -6h151q10 0 10 -10l-10 -63q-1 -10 -10 -10h-141q-6 0 -6 -6v-29q0 -6 6 -6h131q10 0 10 -10l-10 -62q-1 -10 -10 -10h-121q-6 0 -6 -6q0 -45 6 -61q14 -46 61 -46q46 0 68 47q5 9 17 5l115 -52q9 -4 5 -14q-57 -124 -208 -124z" />
    <glyph glyph-name="cent.prop" horiz-adv-x="505" 
d="M203 243q0 -51 8 -75q13 -42 64 -42q46 0 68 43q4 9 16 3l112 -58q8 -5 4 -14q-20 -42 -62.5 -71t-98.5 -38v-78q0 -10 -10 -10h-79q-10 0 -10 10v80q-129 21 -167 138q-14 44 -14 112q0 69 14 113q38 116 167 138v79q0 10 10 10h79q10 0 10 -10v-77q56 -9 98.5 -38.5
t62.5 -70.5q4 -9 -4 -14l-112 -58q-12 -6 -16 3q-23 43 -68 43q-51 0 -64 -42q-8 -24 -8 -76z" />
    <glyph glyph-name="dollar.prop" horiz-adv-x="543" 
d="M34 65q-9 7 -2 16l83 101q6 7 13 1q62 -50 127 -50q40 0 62 18.5t22 52.5q0 51 -70 60l-21 3q-95 12 -148 65.5t-53 137.5q0 82 48 141.5t129 75.5v69q0 10 10 10h83q10 0 10 -10v-67q81 -11 150 -55q10 -7 2 -16l-70 -101q-6 -8 -14 -3q-53 33 -106 33
q-33 0 -53.5 -17.5t-20.5 -45.5q0 -24 16 -38.5t55 -20.5l24 -3q197 -27 197 -205q0 -86 -47.5 -145.5t-132.5 -76.5v-71q0 -10 -10 -10h-83q-10 0 -10 10v66q-110 10 -190 75z" />
    <glyph glyph-name="sterling.prop" horiz-adv-x="530" 
d="M481 0h-419q-10 0 -10 10v116q0 8 5 13q35 32 35 80v38q0 6 -6 6h-34q-10 0 -10 10v96q0 10 10 10h34q6 0 6 6v105q0 96 54.5 149t150.5 53q81 0 132.5 -42t60.5 -107q2 -10 -8 -12l-129 -27q-10 -2 -12 8q-8 42 -42 42q-40 0 -40 -52v-117q0 -6 6 -6h125q10 0 10 -10
v-96q0 -10 -10 -10h-125q-6 0 -6 -6v-27q0 -60 -29 -89v-2h251q10 0 10 -10v-119q0 -10 -10 -10z" />
    <glyph glyph-name="florin.prop" horiz-adv-x="491" 
d="M422 302h-87l-47 -302q-15 -100 -62.5 -140t-141.5 -40h-36q-10 0 -10 10v118q0 10 10 10h20q28 0 41 11t18 39l45 294h-58q-10 0 -10 10v103q0 10 10 10h77l12 76q15 98 62.5 138.5t140.5 40.5h37q10 0 10 -10v-118q0 -10 -10 -10h-21q-26 0 -39.5 -11.5t-17.5 -38.5
l-11 -67h68q10 0 10 -10v-103q0 -10 -10 -10z" />
    <glyph glyph-name="yen.prop" horiz-adv-x="551" 
d="M349 0h-147q-10 0 -10 10v112q0 6 -6 6h-112q-10 0 -10 10v62q0 10 10 10h112q6 0 6 6v29q0 6 -6 6h-112q-10 0 -10 10v62q0 10 10 10h87v2l-145 335q-4 10 7 10h156q11 0 15 -10l82 -237h3l81 237q3 10 15 10h153q11 0 7 -10l-145 -335v-2h87q10 0 10 -10v-62
q0 -10 -10 -10h-112q-6 0 -6 -6v-29q0 -6 6 -6h112q10 0 10 -10v-62q0 -10 -10 -10h-112q-6 0 -6 -6v-112q0 -10 -10 -10z" />
    <glyph glyph-name="zero.onumprop" horiz-adv-x="588" 
d="M294 -12q-115 0 -188.5 72.5t-73.5 182.5t73.5 183t188.5 73q116 0 189 -72.5t73 -183.5q0 -110 -73 -182.5t-189 -72.5zM294 139q44 0 70 30t26 74q0 45 -26 75t-70 30q-43 0 -69.5 -30t-26.5 -75q0 -44 26.5 -74t69.5 -30z" />
    <glyph glyph-name="one.onumprop" horiz-adv-x="419" 
d="M329 0h-148q-10 0 -10 10v316h-2l-129 -47q-12 -4 -12 7v129q0 11 9 15l131 53q11 4 20 4h141q10 0 10 -10v-467q0 -10 -10 -10z" />
    <glyph glyph-name="two.onumprop" horiz-adv-x="542" 
d="M484 0h-430q-10 0 -10 10v98q0 10 7 16l206 115q43 25 57.5 41t14.5 36q0 22 -17 36t-46 14q-60 0 -71 -55q-2 -10 -11 -9l-131 20q-9 2 -9 11q7 73 68 119.5t160 46.5t160.5 -49t61.5 -126q0 -52 -25 -85.5t-74 -60.5l-85 -47v-2h174q10 0 10 -10v-109q0 -10 -10 -10z
" />
    <glyph glyph-name="three.onumprop" horiz-adv-x="526" 
d="M264 -192q-98 0 -159.5 47t-71.5 122q-2 9 8 11l133 22q10 1 12 -8q16 -56 72 -56q33 0 52 19.5t19 57.5q0 78 -97 78h-41q-10 0 -10 10v113q0 7 7 16l91 105v2h-218q-10 0 -10 10v120q0 10 10 10h405q10 0 10 -10v-115q0 -10 -7 -17l-116 -132v-2q141 -34 141 -193
q0 -97 -65 -153.5t-165 -56.5z" />
    <glyph glyph-name="four.onumprop" horiz-adv-x="544" 
d="M456 -180h-143q-10 0 -10 10v164q0 6 -6 6h-258q-10 0 -10 10v127q0 8 3 14l158 328q4 8 15 8h155q5 0 7 -3t0 -7l-160 -331v-2h90q6 0 6 6v116q0 10 10 10h143q10 0 10 -10v-116q0 -6 5 -6h39q10 0 10 -10v-124q0 -10 -10 -10h-38q-6 0 -6 -6v-164q0 -10 -10 -10z" />
    <glyph glyph-name="five.onumprop" horiz-adv-x="527" 
d="M268 -192q-94 0 -152.5 45t-66.5 116q-2 9 8 12l131 21q10 1 13 -9q16 -47 65 -47q44 0 58 39q7 18 7 51q0 32 -7 52q-13 38 -58 38q-39 0 -55 -31q-4 -10 -14 -10h-128q-10 0 -10 10v382q0 10 10 10h396q10 0 10 -10v-120q0 -10 -10 -10h-258q-6 0 -6 -6v-114h2
q36 36 105 36q136 0 173 -115q14 -44 14 -113q0 -50 -15 -95q-21 -65 -76 -98.5t-136 -33.5z" />
    <glyph glyph-name="six.onumprop" horiz-adv-x="541" 
d="M270 -12q-105 0 -171.5 60t-66.5 159q0 79 54 183l151 283q4 7 13 7h157q13 0 7 -11l-136 -254l2 -1q12 5 33 5q85 0 140.5 -58.5t55.5 -151.5q0 -100 -66.5 -160.5t-172.5 -60.5zM270 126q35 0 56.5 22.5t21.5 57.5q0 36 -21.5 58.5t-56.5 22.5q-34 0 -55.5 -23
t-21.5 -58t21.5 -57.5t55.5 -22.5z" />
    <glyph glyph-name="seven.onumprop" horiz-adv-x="516" 
d="M270 -180h-155q-5 0 -7 3.5t0 7.5l205 508v3h-115q-6 0 -6 -6v-64q0 -10 -10 -10h-136q-10 0 -10 10v205q0 10 10 10h430q10 0 10 -10v-133q0 -4 -2 -10l-201 -504q-3 -10 -13 -10z" />
    <glyph glyph-name="eight.onumprop" horiz-adv-x="544" 
d="M272 -12q-104 0 -172 57.5t-68 153.5q0 99 78 154v2q-63 49 -63 135q0 84 61 143t164 59t164 -59t61 -143q0 -87 -62 -135v-2q77 -54 77 -154q0 -96 -68 -153.5t-172 -57.5zM272 420q29 0 48 19.5t19 47.5t-19 47.5t-48 19.5t-47.5 -19.5t-18.5 -47.5t18.5 -47.5
t47.5 -19.5zM272 126q34 0 56.5 22t22.5 57t-22 57.5t-57 22.5t-57 -22.5t-22 -57.5t22.5 -57t56.5 -22z" />
    <glyph glyph-name="nine.onumprop" horiz-adv-x="541" 
d="M299 -180h-158q-13 0 -7 11l129 241l-2 1q-13 -5 -33 -5q-85 0 -140.5 58.5t-55.5 151.5q0 100 66.5 160.5t171.5 60.5q106 0 172.5 -60t66.5 -159q0 -80 -54 -183l-144 -270q-4 -7 -12 -7zM270 200q35 0 56.5 22.5t21.5 58.5q0 35 -21.5 57.5t-56.5 22.5
q-34 0 -55.5 -22.5t-21.5 -57.5t21.5 -58t55.5 -23z" />
    <glyph glyph-name="one.superior" horiz-adv-x="366" 
d="M268 430h-102q-10 0 -10 10v270h-2l-66 -38q-4 -2 -7 0t-3 6v97q0 10 9 15l62 40q10 6 17 6h102q10 0 10 -10v-386q0 -10 -10 -10z" />
    <glyph glyph-name="two.superior" horiz-adv-x="366" 
d="M322 430h-277q-10 0 -10 10v76q0 11 8 18l146 137q23 23 23 45q0 31 -31 31q-32 0 -35 -36q-2 -11 -11 -9l-91 13q-9 1 -9 11q2 49 42.5 83t110.5 34q62 0 103 -33.5t41 -92.5q0 -57 -54 -107l-84 -78v-1h128q10 0 10 -10v-81q0 -10 -10 -10z" />
    <glyph glyph-name="three.superior" horiz-adv-x="366" 
d="M184 423q-62 0 -103 26.5t-50 75.5q-2 10 8 12l90 14q9 1 13 -7q12 -25 38 -25q36 0 36 35t-43 35h-13q-10 0 -10 10v74q0 10 10 10h13q16 0 26 8.5t10 23.5q0 32 -32 32q-24 0 -34 -23q-3 -9 -12 -7l-90 14q-10 2 -8 11q9 45 48 73t101 28q69 0 108 -31.5t39 -82.5
t-45 -82v-1q52 -24 52 -94q0 -59 -41 -94t-111 -35z" />
    <glyph glyph-name="a.alt01" horiz-adv-x="557" 
d="M494 0h-148q-10 0 -10 10v36h-1q-38 -58 -125 -58q-123 0 -161 117q-17 55 -17 138q0 84 17 139q38 117 161 117q87 0 125 -58h1v36q0 10 10 10h148q10 0 10 -10v-467q0 -10 -10 -10zM269 126q46 0 59 41q8 21 8 76q0 56 -8 77q-13 41 -59 41q-45 0 -60 -41
q-7 -22 -7 -77q0 -54 7 -76q15 -41 60 -41z" />
    <glyph glyph-name="agrave.alt01" horiz-adv-x="557" 
d="M494 0h-148q-10 0 -10 10v36h-1q-38 -58 -125 -58q-123 0 -161 117q-17 55 -17 138q0 84 17 139q38 117 161 117q87 0 125 -58h1v36q0 10 10 10h148q10 0 10 -10v-467q0 -10 -10 -10zM269 126q46 0 59 41q8 21 8 76q0 56 -8 77q-13 41 -59 41q-45 0 -60 -41
q-7 -22 -7 -77q0 -54 7 -76q15 -41 60 -41zM345 546h-116q-10 0 -17 10l-103 136q-3 4 -1.5 7t6.5 3h139q11 0 17 -10l80 -136q5 -10 -5 -10z" />
    <glyph glyph-name="aacute.alt01" horiz-adv-x="557" 
d="M494 0h-148q-10 0 -10 10v36h-1q-38 -58 -125 -58q-123 0 -161 117q-17 55 -17 138q0 84 17 139q38 117 161 117q87 0 125 -58h1v36q0 10 10 10h148q10 0 10 -10v-467q0 -10 -10 -10zM269 126q46 0 59 41q8 21 8 76q0 56 -8 77q-13 41 -59 41q-45 0 -60 -41
q-7 -22 -7 -77q0 -54 7 -76q15 -41 60 -41zM314 546h-116q-10 0 -5 10l80 136q6 10 17 10h139q5 0 6.5 -3t-1.5 -7l-103 -136q-7 -10 -17 -10z" />
    <glyph glyph-name="acircumflex.alt01" horiz-adv-x="557" 
d="M494 0h-148q-10 0 -10 10v36h-1q-38 -58 -125 -58q-123 0 -161 117q-17 55 -17 138q0 84 17 139q38 117 161 117q87 0 125 -58h1v36q0 10 10 10h148q10 0 10 -10v-467q0 -10 -10 -10zM269 126q46 0 59 41q8 21 8 76q0 56 -8 77q-13 41 -59 41q-45 0 -60 -41
q-7 -22 -7 -77q0 -54 7 -76q15 -41 60 -41zM443 544h-95q-13 0 -23 10l-49 50h-2l-48 -50q-10 -10 -23 -10h-95q-5 0 -6.5 3t1.5 7l109 137q7 10 18 10h91q11 0 18 -10l109 -137q3 -4 1.5 -7t-6.5 -3z" />
    <glyph glyph-name="atilde.alt01" horiz-adv-x="557" 
d="M494 0h-148q-10 0 -10 10v36h-1q-38 -58 -125 -58q-123 0 -161 117q-17 55 -17 138q0 84 17 139q38 117 161 117q87 0 125 -58h1v36q0 10 10 10h148q10 0 10 -10v-467q0 -10 -10 -10zM269 126q46 0 59 41q8 21 8 76q0 56 -8 77q-13 41 -59 41q-45 0 -60 -41
q-7 -22 -7 -77q0 -54 7 -76q15 -41 60 -41zM342 545q-37 0 -83 23q-36 18 -60 18q-32 0 -76 -32q-4 -3 -7 -2t-3 5v81q0 13 9 22q37 37 81 37q38 0 84 -23q36 -18 60 -18q34 0 75 33q11 7 11 -4v-81q0 -13 -10 -22q-37 -37 -81 -37z" />
    <glyph glyph-name="adieresis.alt01" horiz-adv-x="557" 
d="M494 0h-148q-10 0 -10 10v36h-1q-38 -58 -125 -58q-123 0 -161 117q-17 55 -17 138q0 84 17 139q38 117 161 117q87 0 125 -58h1v36q0 10 10 10h148q10 0 10 -10v-467q0 -10 -10 -10zM269 126q46 0 59 41q8 21 8 76q0 56 -8 77q-13 41 -59 41q-45 0 -60 -41
q-7 -22 -7 -77q0 -54 7 -76q15 -41 60 -41zM432 550h-108q-10 0 -10 10v110q0 10 10 10h108q10 0 10 -10v-110q0 -10 -10 -10zM227 550h-108q-10 0 -10 10v110q0 10 10 10h108q10 0 10 -10v-110q0 -10 -10 -10z" />
    <glyph glyph-name="amacron.alt01" horiz-adv-x="557" 
d="M494 0h-148q-10 0 -10 10v36h-1q-38 -58 -125 -58q-123 0 -161 117q-17 55 -17 138q0 84 17 139q38 117 161 117q87 0 125 -58h1v36q0 10 10 10h148q10 0 10 -10v-467q0 -10 -10 -10zM269 126q46 0 59 41q8 21 8 76q0 56 -8 77q-13 41 -59 41q-45 0 -60 -41
q-7 -22 -7 -77q0 -54 7 -76q15 -41 60 -41zM431 562h-301q-10 0 -10 10v91q0 10 10 10h301q10 0 10 -10v-91q0 -10 -10 -10z" />
    <glyph glyph-name="abreve.alt01" horiz-adv-x="557" 
d="M494 0h-148q-10 0 -10 10v36h-1q-38 -58 -125 -58q-123 0 -161 117q-17 55 -17 138q0 84 17 139q38 117 161 117q87 0 125 -58h1v36q0 10 10 10h148q10 0 10 -10v-467q0 -10 -10 -10zM269 126q46 0 59 41q8 21 8 76q0 56 -8 77q-13 41 -59 41q-45 0 -60 -41
q-7 -22 -7 -77q0 -54 7 -76q15 -41 60 -41zM266 538q-68 0 -113 40.5t-47 100.5q0 11 12 11h65q10 0 14 -11q18 -40 69 -40q52 0 70 40q4 11 14 11h65q12 0 12 -11q-2 -60 -47.5 -100.5t-113.5 -40.5z" />
    <glyph glyph-name="aring.alt01" horiz-adv-x="557" 
d="M494 0h-148q-10 0 -10 10v36h-1q-38 -58 -125 -58q-123 0 -161 117q-17 55 -17 138q0 84 17 139q38 117 161 117q87 0 125 -58h1v36q0 10 10 10h148q10 0 10 -10v-467q0 -10 -10 -10zM269 126q46 0 59 41q8 21 8 76q0 56 -8 77q-13 41 -59 41q-45 0 -60 -41
q-7 -22 -7 -77q0 -54 7 -76q15 -41 60 -41zM272 518q-49 0 -81.5 32.5t-32.5 81.5t32.5 81.5t81.5 32.5q50 0 82.5 -32.5t32.5 -81.5t-32.5 -81.5t-82.5 -32.5zM272 587q19 0 31.5 13t12.5 32t-12.5 32t-31.5 13q-18 0 -30.5 -13t-12.5 -32t12.5 -32t30.5 -13z" />
    <glyph glyph-name="aringacute.alt01" horiz-adv-x="557" 
d="M330 770h-114q-4 0 -5.5 3t1.5 7l97 99q8 10 20 10h145q5 0 5.5 -4t-3.5 -7l-123 -98q-11 -10 -23 -10zM494 0h-148q-10 0 -10 10v36h-1q-38 -58 -125 -58q-123 0 -161 117q-17 55 -17 138q0 84 17 139q38 117 161 117q87 0 125 -58h1v36q0 10 10 10h148q10 0 10 -10
v-467q0 -10 -10 -10zM269 126q46 0 59 41q8 21 8 76q0 56 -8 77q-13 41 -59 41q-45 0 -60 -41q-7 -22 -7 -77q0 -54 7 -76q15 -41 60 -41zM272 518q-49 0 -81.5 32.5t-32.5 81.5t32.5 81.5t81.5 32.5q50 0 82.5 -32.5t32.5 -81.5t-32.5 -81.5t-82.5 -32.5zM272 587
q19 0 31.5 13t12.5 32t-12.5 32t-31.5 13q-18 0 -30.5 -13t-12.5 -32t12.5 -32t30.5 -13z" />
    <glyph glyph-name="aogonek.alt01" horiz-adv-x="557" 
d="M504 477v-467q0 -7 -7 -10q-89 -37 -89 -66q0 -16 17 -16q10 0 24 8q9 4 13 -3l38 -71q9 -15 -36 -30q-41 -14 -67 -14q-51 0 -80.5 26.5t-29.5 70.5q0 56 63 96q-14 0 -14 9v36h-1q-38 -58 -125 -58q-123 0 -161 117q-17 55 -17 138q0 84 17 139q38 117 161 117
q87 0 125 -58h1v36q0 10 10 10h148q10 0 10 -10zM269 126q46 0 59 41q8 21 8 76q0 56 -8 77q-13 41 -59 41q-45 0 -60 -41q-7 -22 -7 -77q0 -54 7 -76q15 -41 60 -41z" />
    <glyph glyph-name="ae.alt01" horiz-adv-x="819" 
d="M562 -12q-51 0 -95 18.5t-70 50.5h-1q-53 -69 -183 -69q-85 0 -132 38t-47 112q0 79 56 119.5t151 40.5h77q6 0 6 6v13q0 28 -19.5 39.5t-74.5 11.5q-65 0 -105 -28q-9 -5 -13 3l-52 92q-4 10 3 16q70 48 189 48q103 0 164 -43h2q54 43 134 43q86 0 142 -36.5t78 -104.5
q15 -45 15 -152q0 -10 -10 -10h-289q-6 0 -6 -6q0 -12 4 -20q17 -53 94 -53q59 0 109 39q8 8 14 0l72 -73q7 -7 -1 -15q-83 -80 -212 -80zM620 298q6 0 6 6q0 17 -5 30q-13 44 -67 44t-68 -44q-4 -11 -4 -30q0 -6 6 -6h132zM248 108q76 0 76 52v30q0 6 -6 6h-59
q-68 0 -68 -46q0 -42 57 -42z" />
    <glyph glyph-name="aeacute.alt01" horiz-adv-x="819" 
d="M458 546h-116q-10 0 -5 10l80 136q6 10 17 10h139q5 0 6.5 -3t-1.5 -7l-103 -136q-8 -10 -17 -10zM562 -12q-51 0 -95 18.5t-70 50.5h-1q-53 -69 -183 -69q-85 0 -132 38t-47 112q0 79 56 119.5t151 40.5h77q6 0 6 6v13q0 28 -19.5 39.5t-74.5 11.5q-65 0 -105 -28
q-9 -5 -13 3l-52 92q-4 10 3 16q70 48 189 48q103 0 164 -43h2q54 43 134 43q86 0 142 -36.5t78 -104.5q15 -45 15 -152q0 -10 -10 -10h-289q-6 0 -6 -6q0 -12 4 -20q17 -53 94 -53q59 0 109 39q8 8 14 0l72 -73q7 -7 -1 -15q-83 -80 -212 -80zM620 298q6 0 6 6q0 17 -5 30
q-13 44 -67 44t-68 -44q-4 -11 -4 -30q0 -6 6 -6h132zM248 108q76 0 76 52v30q0 6 -6 6h-59q-68 0 -68 -46q0 -42 57 -42z" />
    <glyph glyph-name="germandbls.alt01" horiz-adv-x="600" 
d="M272 -181q-10 0 -10 10v113q0 10 10 10q131 2 131 103q0 42 -24.5 67.5t-71.5 31.5q-10 2 -10 10v104q0 7 5 12l63 79v4h-140q-5 0 -5 -6v-347q0 -10 -10 -10h-147q-10 0 -10 10v497q0 92 43 132.5t138 40.5h67q10 0 10 -10v-107q0 -10 -10 -10h-31q-29 0 -39.5 -10
t-10.5 -35v-15q0 -6 5 -6h317q10 0 10 -10v-104q0 -6 -5 -14l-83 -105v-3q105 -57 105 -189q0 -110 -78.5 -176.5t-218.5 -66.5z" />
    <glyph glyph-name="q.alt01" horiz-adv-x="557" 
d="M504 477v-515h1l48 41q9 7 15 -1l55 -66q7 -7 -2 -14l-116 -97q-6 -5 -16 -5h-143q-10 0 -10 10v216h-1q-38 -58 -125 -58q-123 0 -161 117q-17 55 -17 138q0 84 17 139q38 117 161 117q87 0 125 -58h1v36q0 10 10 10h148q10 0 10 -10zM269 126q46 0 59 41q8 21 8 76
q0 56 -8 77q-13 41 -59 41q-45 0 -60 -41q-7 -22 -7 -77q0 -54 7 -76q15 -41 60 -41z" />
    <glyph glyph-name="C.alt01" horiz-adv-x="592" 
d="M305 -12q-92 0 -155.5 42.5t-90.5 125.5q-20 61 -20 184t20 184q27 83 90.5 125.5t155.5 42.5q105 0 175.5 -60t79.5 -162q0 -10 -10 -10h-149q-9 0 -12 10q-18 65 -81 65q-62 0 -81 -59q-10 -30 -10 -136t10 -136q19 -59 81 -59t82 65q3 10 11 10h150q10 0 10 -10
q-9 -102 -80 -162t-176 -60z" />
    <glyph glyph-name="Cacute.alt01" horiz-adv-x="592" 
d="M305 -12q-92 0 -155.5 42.5t-90.5 125.5q-20 61 -20 184t20 184q27 83 90.5 125.5t155.5 42.5q105 0 175.5 -60t79.5 -162q0 -10 -10 -10h-149q-9 0 -12 10q-18 65 -81 65q-62 0 -81 -59q-10 -30 -10 -136t10 -136q19 -59 81 -59t82 65q3 10 11 10h150q10 0 10 -10
q-9 -102 -80 -162t-176 -60zM340 747h-115q-5 0 -6 3t2 7l102 122q8 10 18 10h142q5 0 6.5 -3t-1.5 -7l-128 -123q-9 -9 -20 -9z" />
    <glyph glyph-name="Ccircumflex.alt01" horiz-adv-x="592" 
d="M305 -12q-92 0 -155.5 42.5t-90.5 125.5q-20 61 -20 184t20 184q27 83 90.5 125.5t155.5 42.5q105 0 175.5 -60t79.5 -162q0 -10 -10 -10h-149q-9 0 -12 10q-18 65 -81 65q-62 0 -81 -59q-10 -30 -10 -136t10 -136q19 -59 81 -59t82 65q3 10 11 10h150q10 0 10 -10
q-9 -102 -80 -162t-176 -60zM472 741h-95q-13 0 -23 10l-48 50h-2l-49 -50q-10 -10 -23 -10h-95q-5 0 -6 3t2 7l108 137q7 10 19 10h90q12 0 19 -10l108 -137q3 -4 1.5 -7t-6.5 -3z" />
    <glyph glyph-name="Ccaron.alt01" horiz-adv-x="592" 
d="M305 -12q-92 0 -155.5 42.5t-90.5 125.5q-20 61 -20 184t20 184q27 83 90.5 125.5t155.5 42.5q105 0 175.5 -60t79.5 -162q0 -10 -10 -10h-149q-9 0 -12 10q-18 65 -81 65q-62 0 -81 -59q-10 -30 -10 -136t10 -136q19 -59 81 -59t82 65q3 10 11 10h150q10 0 10 -10
q-9 -102 -80 -162t-176 -60zM342 736h-90q-12 0 -19 10l-108 136q-3 4 -2 7t6 3h95q13 0 23 -10l49 -49h2l48 49q10 10 23 10h95q5 0 6.5 -3t-1.5 -7l-108 -136q-7 -10 -19 -10z" />
    <glyph glyph-name="Cdotaccent.alt01" horiz-adv-x="592" 
d="M367 750h-138q-10 0 -10 10v110q0 10 10 10h138q10 0 10 -10v-110q0 -10 -10 -10zM305 -12q-92 0 -155.5 42.5t-90.5 125.5q-20 61 -20 184t20 184q27 83 90.5 125.5t155.5 42.5q105 0 175.5 -60t79.5 -162q0 -10 -10 -10h-149q-9 0 -12 10q-18 65 -81 65q-62 0 -81 -59
q-10 -30 -10 -136t10 -136q19 -59 81 -59t82 65q3 10 11 10h150q10 0 10 -10q-9 -102 -80 -162t-176 -60z" />
    <glyph glyph-name="Ccedilla.alt01" horiz-adv-x="592" 
d="M306 -166h-115q-10 0 -7 10l59 150q-140 25 -184 162q-20 61 -20 184t20 184q27 83 90.5 125.5t155.5 42.5q105 0 175.5 -60t79.5 -162q0 -10 -10 -10h-149q-9 0 -12 10q-18 65 -81 65q-62 0 -81 -59q-10 -30 -10 -136t10 -136q19 -59 81 -59t82 65q3 10 11 10h150
q10 0 10 -10q-7 -87 -60 -144t-135 -72l-44 -150q-3 -10 -16 -10z" />
    <glyph glyph-name="G.alt01" horiz-adv-x="628" 
d="M317 -12q-94 0 -162.5 42.5t-95.5 125.5q-20 61 -20 184t20 184q27 83 95.5 125.5t162.5 42.5q106 0 178.5 -58.5t86.5 -159.5q2 -10 -10 -10h-148q-10 0 -14 10q-21 61 -92 61q-72 0 -91 -62q-10 -31 -10 -133q0 -103 10 -134q20 -61 93 -61t90 54q6 18 6 44q0 6 -6 6
h-73q-10 0 -10 10v113q0 10 10 10h242q10 0 10 -10v-52q0 -104 -18 -158q-27 -84 -94 -129t-160 -45z" />
    <glyph glyph-name="Gcircumflex.alt01" horiz-adv-x="628" 
d="M317 -12q-94 0 -162.5 42.5t-95.5 125.5q-20 61 -20 184t20 184q27 83 95.5 125.5t162.5 42.5q106 0 178.5 -58.5t86.5 -159.5q2 -10 -10 -10h-148q-10 0 -14 10q-21 61 -92 61q-72 0 -91 -62q-10 -31 -10 -133q0 -103 10 -134q20 -61 93 -61t90 54q6 18 6 44q0 6 -6 6
h-73q-10 0 -10 10v113q0 10 10 10h242q10 0 10 -10v-52q0 -104 -18 -158q-27 -84 -94 -129t-160 -45zM481 741h-95q-13 0 -23 10l-48 50h-2l-49 -50q-10 -10 -23 -10h-95q-4 0 -5.5 3t1.5 7l108 137q7 10 19 10h90q12 0 19 -10l108 -137q3 -4 1.5 -7t-6.5 -3z" />
    <glyph glyph-name="Gbreve.alt01" horiz-adv-x="628" 
d="M313 734q-68 0 -113 40.5t-47 100.5q0 10 12 10h65q10 0 14 -10q18 -40 69 -40q52 0 70 40q4 10 14 10h65q12 0 12 -10q-2 -60 -47 -100.5t-114 -40.5zM317 -12q-94 0 -162.5 42.5t-95.5 125.5q-20 61 -20 184t20 184q27 83 95.5 125.5t162.5 42.5q106 0 178.5 -58.5
t86.5 -159.5q2 -10 -10 -10h-148q-10 0 -14 10q-21 61 -92 61q-72 0 -91 -62q-10 -31 -10 -133q0 -103 10 -134q20 -61 93 -61t90 54q6 18 6 44q0 6 -6 6h-73q-10 0 -10 10v113q0 10 10 10h242q10 0 10 -10v-52q0 -104 -18 -158q-27 -84 -94 -129t-160 -45z" />
    <glyph glyph-name="Gdotaccent.alt01" horiz-adv-x="628" 
d="M382 750h-138q-10 0 -10 10v110q0 10 10 10h138q10 0 10 -10v-110q0 -10 -10 -10zM317 -12q-94 0 -162.5 42.5t-95.5 125.5q-20 61 -20 184t20 184q27 83 95.5 125.5t162.5 42.5q106 0 178.5 -58.5t86.5 -159.5q2 -10 -10 -10h-148q-10 0 -14 10q-21 61 -92 61
q-72 0 -91 -62q-10 -31 -10 -133q0 -103 10 -134q20 -61 93 -61t90 54q6 18 6 44q0 6 -6 6h-73q-10 0 -10 10v113q0 10 10 10h242q10 0 10 -10v-52q0 -104 -18 -158q-27 -84 -94 -129t-160 -45z" />
    <glyph glyph-name="Gcommaaccent.alt01" horiz-adv-x="628" 
d="M255 -248q-11 0 -11 13v179q0 10 10 10h120q10 0 10 -10v-89q0 -14 -9 -20l-103 -75q-11 -8 -17 -8zM317 -12q-94 0 -162.5 42.5t-95.5 125.5q-20 61 -20 184t20 184q27 83 95.5 125.5t162.5 42.5q106 0 178.5 -58.5t86.5 -159.5q2 -10 -10 -10h-148q-10 0 -14 10
q-21 61 -92 61q-72 0 -91 -62q-10 -31 -10 -133q0 -103 10 -134q20 -61 93 -61t90 54q6 18 6 44q0 6 -6 6h-73q-10 0 -10 10v113q0 10 10 10h242q10 0 10 -10v-52q0 -104 -18 -158q-27 -84 -94 -129t-160 -45z" />
    <glyph glyph-name="I.alt01" horiz-adv-x="404" 
d="M357 0h-310q-10 0 -10 10v126q0 10 10 10h61q6 0 6 6v376q0 6 -6 6h-61q-10 0 -10 10v126q0 10 10 10h310q10 0 10 -10v-126q0 -10 -10 -10h-61q-6 0 -6 -6v-376q0 -6 6 -6h61q10 0 10 -10v-126q0 -10 -10 -10z" />
    <glyph glyph-name="Igrave.alt01" horiz-adv-x="404" 
d="M357 0h-310q-10 0 -10 10v126q0 10 10 10h61q6 0 6 6v376q0 6 -6 6h-61q-10 0 -10 10v126q0 10 10 10h310q10 0 10 -10v-126q0 -10 -10 -10h-61q-6 0 -6 -6v-376q0 -6 6 -6h61q10 0 10 -10v-126q0 -10 -10 -10zM265 747h-115q-11 0 -20 9l-128 123q-3 4 -1.5 7t6.5 3h142
q10 0 18 -10l102 -122q3 -4 2 -7t-6 -3z" />
    <glyph glyph-name="Iacute.alt01" horiz-adv-x="404" 
d="M357 0h-310q-10 0 -10 10v126q0 10 10 10h61q6 0 6 6v376q0 6 -6 6h-61q-10 0 -10 10v126q0 10 10 10h310q10 0 10 -10v-126q0 -10 -10 -10h-61q-6 0 -6 -6v-376q0 -6 6 -6h61q10 0 10 -10v-126q0 -10 -10 -10zM249 747h-115q-4 0 -5.5 3t1.5 7l102 122q8 10 18 10h142
q5 0 6.5 -3t-1.5 -7l-128 -123q-9 -9 -20 -9z" />
    <glyph glyph-name="Ibreve.alt01" horiz-adv-x="404" 
d="M357 0h-310q-10 0 -10 10v126q0 10 10 10h61q6 0 6 6v376q0 6 -6 6h-61q-10 0 -10 10v126q0 10 10 10h310q10 0 10 -10v-126q0 -10 -10 -10h-61q-6 0 -6 -6v-376q0 -6 6 -6h61q10 0 10 -10v-126q0 -10 -10 -10zM202 734q-68 0 -113 40.5t-47 100.5q0 10 12 10h65
q10 0 14 -10q18 -40 69 -40q52 0 70 40q4 10 14 10h65q12 0 12 -10q-2 -60 -47 -100.5t-114 -40.5z" />
    <glyph glyph-name="Icircumflex.alt01" horiz-adv-x="404" 
d="M357 0h-310q-10 0 -10 10v126q0 10 10 10h61q6 0 6 6v376q0 6 -6 6h-61q-10 0 -10 10v126q0 10 10 10h310q10 0 10 -10v-126q0 -10 -10 -10h-61q-6 0 -6 -6v-376q0 -6 6 -6h61q10 0 10 -10v-126q0 -10 -10 -10zM369 741h-95q-13 0 -23 10l-48 50h-2l-49 -50
q-10 -10 -23 -10h-95q-4 0 -5.5 3t1.5 7l108 137q7 10 19 10h90q12 0 19 -10l108 -137q3 -4 1.5 -7t-6.5 -3z" />
    <glyph glyph-name="Itilde.alt01" horiz-adv-x="404" 
d="M357 0h-310q-10 0 -10 10v126q0 10 10 10h61q6 0 6 6v376q0 6 -6 6h-61q-10 0 -10 10v126q0 10 10 10h310q10 0 10 -10v-126q0 -10 -10 -10h-61q-6 0 -6 -6v-376q0 -6 6 -6h61q10 0 10 -10v-126q0 -10 -10 -10zM272 740q-37 0 -83 23q-36 18 -60 18q-33 0 -76 -33
q-4 -3 -7 -1.5t-3 5.5v81q0 12 9 22q37 37 81 37q36 0 84 -24q38 -17 60 -17q33 0 75 32q11 7 11 -3v-81q0 -13 -10 -22q-37 -37 -81 -37z" />
    <glyph glyph-name="Idieresis.alt01" horiz-adv-x="404" 
d="M357 0h-310q-10 0 -10 10v126q0 10 10 10h61q6 0 6 6v376q0 6 -6 6h-61q-10 0 -10 10v126q0 10 10 10h310q10 0 10 -10v-126q0 -10 -10 -10h-61q-6 0 -6 -6v-376q0 -6 6 -6h61q10 0 10 -10v-126q0 -10 -10 -10zM359 750h-107q-10 0 -10 10v110q0 10 10 10h107
q10 0 10 -10v-110q0 -10 -10 -10zM153 750h-107q-10 0 -10 10v110q0 10 10 10h107q10 0 10 -10v-110q0 -10 -10 -10z" />
    <glyph glyph-name="Imacron.alt01" horiz-adv-x="404" 
d="M357 0h-310q-10 0 -10 10v126q0 10 10 10h61q6 0 6 6v376q0 6 -6 6h-61q-10 0 -10 10v126q0 10 10 10h310q10 0 10 -10v-126q0 -10 -10 -10h-61q-6 0 -6 -6v-376q0 -6 6 -6h61q10 0 10 -10v-126q0 -10 -10 -10zM353 761h-301q-10 0 -10 10v90q0 10 10 10h301q10 0 10 -10
v-90q0 -10 -10 -10z" />
    <glyph glyph-name="Idotaccent.alt01" horiz-adv-x="404" 
d="M357 0h-310q-10 0 -10 10v126q0 10 10 10h61q6 0 6 6v376q0 6 -6 6h-61q-10 0 -10 10v126q0 10 10 10h310q10 0 10 -10v-126q0 -10 -10 -10h-61q-6 0 -6 -6v-376q0 -6 6 -6h61q10 0 10 -10v-126q0 -10 -10 -10zM271 750h-138q-10 0 -10 10v110q0 10 10 10h138
q10 0 10 -10v-110q0 -10 -10 -10z" />
    <glyph glyph-name="Iogonek.alt01" horiz-adv-x="404" 
d="M202 -192q-50 0 -79.5 26.5t-29.5 69.5q0 56 45 96h-91q-10 0 -10 10v126q0 10 10 10h61q6 0 6 6v376q0 6 -6 6h-61q-10 0 -10 10v126q0 10 10 10h310q10 0 10 -10v-126q0 -10 -10 -10h-61q-6 0 -6 -6v-376q0 -6 6 -6h61q10 0 10 -10v-126q0 -10 -10 -10h-79
q-40 -26 -53 -40t-13 -27q0 -16 18 -16q10 0 24 9q9 4 13 -4l38 -70q5 -8 -4 -14q-44 -30 -99 -30z" />
    <glyph glyph-name="Z.alt01" 
d="M490 282h-155l-94 -123v-3h275q10 0 10 -10v-136q0 -10 -10 -10h-471q-10 0 -10 10v134q0 6 3 10l98 128h-58q-10 0 -10 10v104q0 10 10 10h153l89 115v3h-264q-10 0 -10 10v136q0 10 10 10h460q10 0 10 -10v-134q0 -6 -3 -10l-92 -120h59q10 0 10 -10v-104
q0 -10 -10 -10z" />
    <glyph glyph-name="Zacute.alt01" 
d="M315 747h-115q-4 0 -5.5 3t1.5 7l102 122q8 10 18 10h142q5 0 6.5 -3t-1.5 -7l-128 -123q-9 -9 -20 -9zM490 282h-155l-94 -123v-3h275q10 0 10 -10v-136q0 -10 -10 -10h-471q-10 0 -10 10v134q0 6 3 10l98 128h-58q-10 0 -10 10v104q0 10 10 10h153l89 115v3h-264
q-10 0 -10 10v136q0 10 10 10h460q10 0 10 -10v-134q0 -6 -3 -10l-92 -120h59q10 0 10 -10v-104q0 -10 -10 -10z" />
    <glyph glyph-name="Zcaron.alt01" 
d="M326 736h-90q-12 0 -19 10l-108 136q-3 4 -2 7t6 3h95q13 0 23 -10l49 -49h2l48 49q10 10 23 10h95q5 0 6.5 -3t-1.5 -7l-108 -136q-7 -10 -19 -10zM490 282h-155l-94 -123v-3h275q10 0 10 -10v-136q0 -10 -10 -10h-471q-10 0 -10 10v134q0 6 3 10l98 128h-58
q-10 0 -10 10v104q0 10 10 10h153l89 115v3h-264q-10 0 -10 10v136q0 10 10 10h460q10 0 10 -10v-134q0 -6 -3 -10l-92 -120h59q10 0 10 -10v-104q0 -10 -10 -10z" />
    <glyph glyph-name="Zdotaccent.alt01" 
d="M349 750h-138q-10 0 -10 10v110q0 10 10 10h138q10 0 10 -10v-110q0 -10 -10 -10zM490 282h-155l-94 -123v-3h275q10 0 10 -10v-136q0 -10 -10 -10h-471q-10 0 -10 10v134q0 6 3 10l98 128h-58q-10 0 -10 10v104q0 10 10 10h153l89 115v3h-264q-10 0 -10 10v136
q0 10 10 10h460q10 0 10 -10v-134q0 -6 -3 -10l-92 -120h59q10 0 10 -10v-104q0 -10 -10 -10z" />
    <glyph glyph-name="zero.alt01" 
d="M281 -12q-83 0 -138.5 38t-78.5 108q-16 48 -16 206t16 206q23 70 78.5 108t138.5 38q84 0 139 -38t79 -108q15 -49 15 -206q0 -156 -15 -206q-24 -70 -79 -108t-139 -38zM217 340v-72l117 259q-15 28 -53 28q-45 0 -57 -38q-7 -22 -7 -177zM281 125q45 0 57 38
q8 21 8 177v77l-119 -263q15 -29 54 -29z" />
    <glyph glyph-name="one.alt01" 
d="M506 0h-415q-10 0 -10 10v126q0 10 10 10h118q6 0 6 6v346h-2l-120 -71q-4 -3 -8 -1.5t-4 7.5v147q0 8 7 14l127 80q7 6 18 6h139q10 0 10 -10v-518q0 -6 6 -6h118q10 0 10 -10v-126q0 -10 -10 -10z" />
    <glyph glyph-name="six.alt01" 
d="M281 -12q-84 0 -140 35t-77 101q-12 34 -12 92v230q0 118 64 182t178 64q59 0 112 -17.5t85 -40.5q8 -6 3 -14l-58 -97q-5 -10 -14 -4q-70 35 -122 35q-84 0 -84 -94v-45h2q11 11 37 20t54 9q150 0 190 -120q12 -35 12 -108q0 -58 -12 -92q-21 -66 -77.5 -101t-140.5 -35
zM281 126q47 0 60 41q5 17 5 49q0 33 -5 50q-13 41 -60 41q-46 0 -59 -41q-6 -15 -6 -50q0 -34 6 -49q13 -41 59 -41z" />
    <glyph glyph-name="seven.alt01" 
d="M482 237h-97l-90 -227q-4 -10 -14 -10h-154q-5 0 -7 3.5t0 7.5l90 226h-91q-10 0 -10 10v110q0 10 10 10h143l67 165v3h-263q-10 0 -10 10v125q0 10 10 10h427q10 0 10 -10v-132q0 -4 -2 -10l-64 -161h45q10 0 10 -10v-110q0 -10 -10 -10z" />
    <glyph glyph-name="nine.alt01" 
d="M281 692q84 0 140 -35t77 -101q12 -34 12 -92v-230q0 -118 -64 -182t-178 -64q-59 0 -112 17.5t-85 40.5q-8 6 -3 14l58 97q5 10 14 4q70 -35 122 -35q84 0 84 94v45h-2q-11 -11 -37 -20t-54 -9q-150 0 -190 120q-12 35 -12 108q0 58 12 92q21 66 77.5 101t140.5 35z
M281 554q-47 0 -60 -41q-5 -17 -5 -49q0 -33 5 -50q13 -41 60 -41q46 0 59 41q6 15 6 50q0 34 -6 49q-13 41 -59 41z" />
    <glyph glyph-name="zero.alt02" 
d="M281 -12q-83 0 -138.5 38t-78.5 108q-16 48 -16 206t16 206q23 70 78.5 108t138.5 38q84 0 139 -38t79 -108q15 -49 15 -206q0 -156 -15 -206q-24 -70 -79 -108t-139 -38zM217 340v-72l117 259q-15 28 -53 28q-45 0 -57 -38q-7 -22 -7 -177zM281 125q45 0 57 38
q8 21 8 177v77l-119 -263q15 -29 54 -29z" />
    <glyph glyph-name="one.alt02" horiz-adv-x="482" 
d="M462 0h-415q-10 0 -10 10v126q0 10 10 10h118q6 0 6 6v346h-2l-120 -71q-4 -3 -8 -1.5t-4 7.5v147q0 8 7 14l127 80q7 6 18 6h139q10 0 10 -10v-518q0 -6 6 -6h118q10 0 10 -10v-126q0 -10 -10 -10z" />
    <glyph glyph-name="six.alt02" horiz-adv-x="545" 
d="M277 -12q-84 0 -140 35t-77 101q-12 34 -12 92v230q0 118 64 182t178 64q59 0 112 -17.5t85 -40.5q8 -6 3 -14l-58 -97q-5 -10 -14 -4q-70 35 -122 35q-84 0 -84 -94v-45h2q11 11 37 20t54 9q150 0 190 -120q12 -35 12 -108q0 -58 -12 -92q-21 -66 -77.5 -101t-140.5 -35
zM277 126q47 0 60 41q5 17 5 49q0 33 -5 50q-13 41 -60 41q-46 0 -59 -41q-6 -15 -6 -50q0 -34 6 -49q13 -41 59 -41z" />
    <glyph glyph-name="seven.alt02" horiz-adv-x="521" 
d="M456 237h-97l-90 -227q-4 -10 -14 -10h-154q-5 0 -7 3.5t0 7.5l90 226h-91q-10 0 -10 10v110q0 10 10 10h143l67 165v3h-263q-10 0 -10 10v125q0 10 10 10h427q10 0 10 -10v-132q0 -4 -2 -10l-64 -161h45q10 0 10 -10v-110q0 -10 -10 -10z" />
    <glyph glyph-name="nine.alt02" horiz-adv-x="545" 
d="M268 692q84 0 140 -35t77 -101q12 -34 12 -92v-230q0 -118 -64 -182t-178 -64q-59 0 -112 17.5t-85 40.5q-8 6 -3 14l58 97q5 10 14 4q70 -35 122 -35q84 0 84 94v45h-2q-11 -11 -37 -20t-54 -9q-150 0 -190 120q-12 35 -12 108q0 58 12 92q21 66 77.5 101t140.5 35z
M268 554q-47 0 -60 -41q-5 -17 -5 -49q0 -33 5 -50q13 -41 60 -41q46 0 59 41q6 15 6 50q0 34 -6 49q-13 41 -59 41z" />
    <glyph glyph-name="zero.nominator" horiz-adv-x="366" 
d="M183 267q-117 0 -147 94q-11 33 -11 116t11 116q30 94 147 94t148 -94q10 -35 10 -116t-10 -116q-31 -94 -148 -94zM183 363q23 0 30 20q3 11 3 94t-3 94q-6 20 -30 20t-30 -20q-3 -11 -3 -94t3 -94q7 -20 30 -20z" />
    <glyph glyph-name="one.nominator" horiz-adv-x="366" 
d="M268 274h-102q-10 0 -10 10v270h-2l-66 -38q-4 -2 -7 0t-3 6v97q0 10 9 15l62 40q10 6 17 6h102q10 0 10 -10v-386q0 -10 -10 -10z" />
    <glyph glyph-name="two.nominator" horiz-adv-x="366" 
d="M322 274h-277q-10 0 -10 10v76q0 11 8 18l146 137q23 23 23 45q0 31 -31 31q-32 0 -35 -36q-2 -11 -11 -9l-91 13q-9 1 -9 11q2 49 42.5 83t110.5 34q62 0 103 -33.5t41 -92.5q0 -57 -54 -107l-84 -78v-1h128q10 0 10 -10v-81q0 -10 -10 -10z" />
    <glyph glyph-name="three.nominator" horiz-adv-x="366" 
d="M184 267q-62 0 -103 26.5t-50 75.5q-2 10 8 12l90 14q9 1 13 -7q12 -25 38 -25q36 0 36 35t-43 35h-13q-10 0 -10 10v74q0 10 10 10h13q16 0 26 8.5t10 23.5q0 32 -32 32q-24 0 -34 -23q-3 -9 -12 -7l-90 14q-10 2 -8 11q9 45 48 73t101 28q69 0 108 -31.5t39 -82.5
t-45 -82v-1q52 -24 52 -94q0 -59 -41 -94t-111 -35z" />
    <glyph glyph-name="four.nominator" horiz-adv-x="366" 
d="M306 274h-93q-10 0 -10 10v36q0 6 -6 6h-166q-10 0 -10 10v85q0 10 4 18l107 231q4 10 15 10h107q11 0 7 -10l-111 -241v-2h47q6 0 6 6v57q0 10 10 10h93q10 0 10 -10v-57q0 -6 5 -6h14q10 0 10 -10v-81q0 -10 -10 -10h-13q-6 0 -6 -6v-36q0 -10 -10 -10z" />
    <glyph glyph-name="five.nominator" horiz-adv-x="366" 
d="M181 267q-59 0 -97 25t-47 69q-1 9 8 12l90 16q8 2 13 -6q10 -19 33 -19q24 0 30 19q3 11 3 23q0 13 -3 22q-6 20 -30 20q-15 0 -25 -10q-5 -6 -12 -6h-93q-10 0 -10 10v228q0 10 10 10h258q10 0 10 -10v-78q0 -11 -10 -11h-155q-6 0 -6 -7v-47h1q22 17 62 17
q91 0 115 -73q8 -21 8 -60q0 -36 -7 -58q-29 -86 -146 -86z" />
    <glyph glyph-name="six.nominator" horiz-adv-x="366" 
d="M183 267q-70 0 -114 37.5t-44 98.5q0 51 38 116l85 151q7 10 16 10h113q11 0 5 -10l-77 -137l1 -1h5l4 1q56 0 91.5 -35.5t35.5 -94.5q0 -61 -44 -98.5t-115 -37.5zM183 362q18 0 29 11t11 28t-11 27.5t-29 10.5t-29 -10.5t-11 -27.5t11 -28t29 -11z" />
    <glyph glyph-name="seven.nominator" horiz-adv-x="366" 
d="M199 274h-108q-9 0 -6 12l126 293v2h-59q-6 0 -6 -6v-36q0 -10 -10 -10h-92q-10 0 -10 10v131q0 10 10 10h282q10 0 10 -10v-89q0 -10 -4 -15l-120 -282q-3 -10 -13 -10z" />
    <glyph glyph-name="eight.nominator" horiz-adv-x="366" 
d="M183 267q-69 0 -114 35t-45 94q0 54 44 89v1q-35 31 -35 76q0 52 40 88.5t110 36.5t110.5 -36.5t40.5 -88.5q0 -44 -36 -76v-1q44 -35 44 -89q0 -59 -45 -94t-114 -35zM183 526q15 0 24.5 9.5t9.5 23.5t-9.5 23.5t-24.5 9.5t-24.5 -9.5t-9.5 -23.5t9.5 -23.5t24.5 -9.5z
M183 362q17 0 29 11.5t12 27.5q0 17 -12 28t-29 11t-29 -11t-12 -28q0 -16 12 -27.5t29 -11.5z" />
    <glyph glyph-name="nine.nominator" horiz-adv-x="366" 
d="M202 274h-113q-11 0 -5 10l77 137l-1 1h-5l-4 -1q-56 0 -91 35.5t-35 94.5q0 61 44 98.5t114 37.5q71 0 115 -37.5t44 -98.5q0 -48 -38 -116l-86 -151q-7 -10 -16 -10zM183 515q18 0 29 10.5t11 27.5t-11 28t-29 11t-29 -11t-11 -28t11 -27.5t29 -10.5z" />
    <glyph glyph-name="zero.denominator" horiz-adv-x="366" 
d="M183 -7q-117 0 -147 94q-11 33 -11 116t11 116q30 94 147 94t148 -94q10 -35 10 -116t-10 -116q-31 -94 -148 -94zM183 89q23 0 30 20q3 10 3 94q0 83 -3 94q-6 20 -30 20t-30 -20q-3 -11 -3 -94q0 -84 3 -94q7 -20 30 -20z" />
    <glyph glyph-name="one.denominator" horiz-adv-x="366" 
d="M268 0h-102q-10 0 -10 10v270h-2l-66 -38q-4 -2 -7 0t-3 6v97q0 10 9 15l62 40q10 6 17 6h102q10 0 10 -10v-386q0 -10 -10 -10z" />
    <glyph glyph-name="two.denominator" horiz-adv-x="366" 
d="M322 0h-277q-10 0 -10 10v76q0 11 8 18l146 137q23 23 23 45q0 31 -31 31q-32 0 -35 -36q-2 -11 -11 -9l-91 13q-9 1 -9 11q2 49 42.5 83t110.5 34q62 0 103 -33.5t41 -92.5q0 -57 -54 -107l-84 -78v-1h128q10 0 10 -10v-81q0 -10 -10 -10z" />
    <glyph glyph-name="three.denominator" horiz-adv-x="366" 
d="M184 -7q-62 0 -103 26.5t-50 75.5q-2 10 8 12l90 14q9 1 13 -7q12 -25 38 -25q36 0 36 35t-43 35h-13q-10 0 -10 10v74q0 10 10 10h13q16 0 26 8.5t10 23.5q0 32 -32 32q-24 0 -34 -23q-3 -9 -12 -7l-90 14q-10 2 -8 11q9 45 48 73t101 28q69 0 108 -31.5t39 -82.5
t-45 -82v-1q52 -24 52 -94q0 -59 -41 -94t-111 -35z" />
    <glyph glyph-name="four.denominator" horiz-adv-x="366" 
d="M306 0h-93q-10 0 -10 10v36q0 6 -6 6h-166q-10 0 -10 10v85q0 10 4 18l107 231q4 10 15 10h107q11 0 7 -10l-111 -241v-2h47q6 0 6 6v57q0 10 10 10h93q10 0 10 -10v-57q0 -6 5 -6h14q10 0 10 -10v-81q0 -10 -10 -10h-13q-6 0 -6 -6v-36q0 -10 -10 -10z" />
    <glyph glyph-name="five.denominator" horiz-adv-x="366" 
d="M181 -7q-59 0 -97 25t-47 69q-1 9 8 12l90 16q8 2 13 -6q10 -19 33 -19q24 0 30 19q3 10 3 23t-3 22q-6 20 -30 20q-15 0 -25 -10q-5 -6 -12 -6h-93q-10 0 -10 10v228q0 10 10 10h258q10 0 10 -10v-78q0 -11 -10 -11h-155q-6 0 -6 -7v-47h1q22 17 62 17q91 0 115 -73
q8 -21 8 -60q0 -36 -7 -58q-29 -86 -146 -86z" />
    <glyph glyph-name="six.denominator" horiz-adv-x="366" 
d="M183 -7q-70 0 -114 37.5t-44 98.5q0 51 38 116l85 151q7 10 16 10h113q11 0 5 -10l-77 -137l1 -1h5l4 1q56 0 91.5 -35.5t35.5 -94.5q0 -61 -44 -98.5t-115 -37.5zM183 88q18 0 29 11t11 28t-11 27.5t-29 10.5t-29 -10.5t-11 -27.5t11 -28t29 -11z" />
    <glyph glyph-name="seven.denominator" horiz-adv-x="366" 
d="M199 0h-108q-9 0 -6 12l126 293v2h-59q-6 0 -6 -6v-36q0 -10 -10 -10h-92q-10 0 -10 10v131q0 10 10 10h282q10 0 10 -10v-89q0 -10 -4 -15l-120 -282q-3 -10 -13 -10z" />
    <glyph glyph-name="eight.denominator" horiz-adv-x="366" 
d="M183 -7q-69 0 -114 35t-45 94q0 54 44 89v1q-35 31 -35 76q0 52 40 88.5t110 36.5t110.5 -36.5t40.5 -88.5q0 -44 -36 -76v-1q44 -35 44 -89q0 -59 -45 -94t-114 -35zM183 252q15 0 24.5 9.5t9.5 23.5t-9.5 23.5t-24.5 9.5t-24.5 -9.5t-9.5 -23.5t9.5 -23.5t24.5 -9.5z
M183 88q17 0 29 11.5t12 27.5q0 17 -12 28t-29 11t-29 -11t-12 -28q0 -16 12 -27.5t29 -11.5z" />
    <glyph glyph-name="nine.denominator" horiz-adv-x="366" 
d="M202 0h-113q-11 0 -5 10l77 137l-1 1h-5l-4 -1q-56 0 -91 35.5t-35 94.5q0 61 44 98.5t114 37.5q71 0 115 -37.5t44 -98.5q0 -48 -38 -116l-86 -151q-7 -10 -16 -10zM183 241q18 0 29 10.5t11 27.5t-11 28t-29 11t-29 -11t-11 -28t11 -27.5t29 -10.5z" />
    </font>
</defs>
</svg>
